<?xml version="1.0" standalone="no"?>
<!DOCTYPE svg PUBLIC "-//W3C//DTD SVG 1.1//EN" "http://www.w3.org/Graphics/SVG/1.1/DTD/svg11.dtd" >
<svg xmlns="http://www.w3.org/2000/svg" xmlns:xlink="http://www.w3.org/1999/xlink" version="1.1">
<metadata>
Created by FontForge 20170731 at Wed Dec  8 21:05:24 2021
 By Aleksey,,,
Copyright 2015 The Alumni Sans Project Authors (https://github.com/googlefonts/alumni)
</metadata>
<defs>
<font id="AlumniSans-SemiBold" horiz-adv-x="384" >
  <font-face 
    font-family="Alumni Sans SemiBold"
    font-weight="600"
    font-stretch="normal"
    units-per-em="1000"
    panose-1="0 0 0 0 0 0 0 0 0 0"
    ascent="800"
    descent="-200"
    x-height="495"
    cap-height="591"
    bbox="-106 -241 746 853"
    underline-thickness="50"
    underline-position="-175"
    unicode-range="U+000D-2215"
  />
<missing-glyph horiz-adv-x="437" 
d="M58 0l-8 9v611l8 10h320l9 -9v-613l-9 -8h-320zM50 9l310 612h27l-310 -612h-27zM360 9l-310 612h27l310 -612h-27zM98 55h241v519h-241v-519z" />
    <glyph glyph-name="fi" unicode="fi" horiz-adv-x="378" 
d="M48 0v421h-31v55h31v52q0 56 32.5 80.5t103.5 24.5q44 0 76.5 -5.5t58.5 -14.5l-5 -47q-25 10 -51 14.5t-55 4.5q-32 0 -49 -13.5t-17 -42.5v-53h197v-476h-93v421h-104v-421h-94z" />
    <glyph glyph-name="fl" unicode="fl" horiz-adv-x="398" 
d="M48 0v421h-31v55h31v52q0 55 29 80t106 25q28 0 58.5 -3t60 -7.5t53.5 -11.5v-611h-94v598l26 -27q-24 7 -46.5 10.5t-38.5 3.5q-36 0 -48 -14t-12 -44v-51h80v-55h-80v-421h-94z" />
    <glyph glyph-name="f_f" unicode="ff" horiz-adv-x="427" 
d="M48 0v421h-31v55h31v52q0 51 29 78t86 27q36 0 61.5 -4t39.5 -8l-15 -42q-10 3 -28.5 4.5t-36.5 1.5q-21 0 -31.5 -13.5t-10.5 -43.5v-52h98v52q0 50 26.5 77.5t80.5 27.5q30 0 54.5 -1.5t32.5 -3.5v-47q-3 1 -20.5 2.5t-37.5 1.5q-23 0 -33 -14.5t-10 -39.5v-55h101v-55
h-101v-421h-93v421h-98v-421h-94z" />
    <glyph glyph-name="f_f_i" unicode="ffi" horiz-adv-x="569" 
d="M48 0v421h-31v55h31v52q0 48 27 76.5t87 28.5q29 0 56.5 -3t45.5 -10l-15 -40q-11 2 -26 3.5t-35 1.5q-24 0 -35 -13t-11 -46v-50h98v52q0 41 16 63.5t45.5 32t69.5 9.5q41 0 72 -6t57 -16v-46q-25 8 -51.5 14t-54.5 6q-26 0 -39 -9t-17.5 -22t-4.5 -27v-51h198v-476h-93
v421h-105v-421h-93v421h-98v-421h-94z" />
    <glyph glyph-name="f_f_l" unicode="ffl" horiz-adv-x="589" 
d="M48 -1v422h-31v55h31v52q0 52 30 78.5t80 26.5q34 0 61.5 -4.5t44.5 -8.5l-15 -42q-11 2 -28 4.5t-33 2.5q-25 0 -35.5 -14t-10.5 -44v-51h98v52q0 48 27.5 76.5t100.5 28.5q31 0 64.5 -3t63.5 -7.5t50 -11.5v-612h-93v599l25 -27q-18 7 -43 10.5t-41 3.5
q-36 0 -48.5 -14t-12.5 -44v-52h83v-55h-83v-421h-93v422h-98v-422h-94z" />
    <glyph glyph-name=".notdef" horiz-adv-x="437" 
d="M58 0l-8 9v611l8 10h320l9 -9v-613l-9 -8h-320zM50 9l310 612h27l-310 -612h-27zM360 9l-310 612h27l310 -612h-27zM98 55h241v519h-241v-519z" />
    <glyph glyph-name=".null" horiz-adv-x="0" 
 />
    <glyph glyph-name="nonmarkingreturn" horiz-adv-x="333" 
 />
    <glyph glyph-name="CR" unicode="&#xd;" horiz-adv-x="318" 
 />
    <glyph glyph-name="space" unicode=" " horiz-adv-x="173" 
 />
    <glyph glyph-name="exclam" unicode="!" horiz-adv-x="203" 
d="M70 191l-16 177l-5 262h102l-4 -260l-18 -179h-59zM103 -7q-23 0 -39 15t-16 37q0 20 16 35t39 15t39.5 -15t16.5 -35q0 -22 -16.5 -37t-39.5 -15z" />
    <glyph glyph-name="quotedbl" unicode="&#x22;" horiz-adv-x="323" 
d="M200 423l-15 207h82l-15 -207h-52zM71 423l-16 207h83l-15 -207h-52z" />
    <glyph glyph-name="numbersign" unicode="#" horiz-adv-x="709" 
d="M127 0l57 179h-148l19 58h147l44 139l-149 1l18 57h150l43 140h60l-44 -140h145l43 140h61l-44 -140h144l-19 -58h-144l-43 -139h145l-18 -58h-145l-57 -179h-60l57 179h-145l-57 -179h-60zM262 237h145l43 139h-145z" />
    <glyph glyph-name="dollar" unicode="$" horiz-adv-x="352" 
d="M148 50q-68 0 -92.5 37t-24.5 108v37h90v-55q0 -21 2 -38.5t13.5 -27t38.5 -9.5q25 0 36 9.5t14 24t3 27.5v34q0 25 -9.5 41t-28 27.5t-46.5 22.5q-28 12 -51.5 26.5t-37.5 38t-14 60.5v29q0 53 26 84.5t87 36.5l59 1q61 -5 85.5 -38t24.5 -99v-39h-86v54
q0 39 -12.5 54.5t-40.5 15.5q-31 0 -41.5 -15.5t-10.5 -39.5v-34q0 -27 13 -43t34.5 -26t48.5 -21q26 -11 47.5 -24.5t34.5 -36.5t13 -62v-27q0 -26 -4.5 -50t-17 -42.5t-35 -29t-59.5 -10.5zM196 670h57l-84 -739h-57z" />
    <glyph glyph-name="percent" unicode="%" horiz-adv-x="567" 
d="M86 0l323 591h70l-324 -591h-69zM256 159q-34 0 -54 9t-28.5 29.5t-8.5 53.5v125q0 18 4.5 36t23 30.5t59.5 12.5q43 0 63.5 -9.5t27 -28t6.5 -45.5v-120q0 -37 -9.5 -57t-29.5 -28t-54 -8zM256 192q23 0 30 12t7 35v137q0 22 -7 34.5t-30 12.5q-16 0 -23.5 -7t-9 -18
t-1.5 -22v-138q0 -11 1.5 -21.5t9 -17.5t23.5 -7zM309 131q-34 0 -54 9.5t-28.5 29.5t-8.5 53v126q0 18 4.5 36t23.5 30.5t60 12.5q42 0 62.5 -9.5t27 -28t6.5 -45.5v-120q0 -37 -9 -57t-29.5 -28.5t-54.5 -8.5zM309 164q23 0 30 12.5t7 34.5v137q0 22 -7 34.5t-30 12.5
q-16 0 -23 -7t-9 -17.5t-2 -22.5v-137q0 -11 2 -22t9 -18t23 -7z" />
    <glyph glyph-name="ampersand" unicode="&#x26;" horiz-adv-x="470" 
d="M188 -5q-54 0 -88 20.5t-50 57.5t-16 87q0 52 21.5 89t63.5 48q-10 16 -18 41t-7 57q2 53 32.5 83t93.5 30q31 0 59.5 -4.5t49.5 -9.5t29 -9v-70q-3 1 -21 5.5t-42.5 9t-50.5 4.5q-27 0 -42 -11.5t-20 -29t-0.5 -37t15.5 -37.5q4 -7 13 -19t20.5 -25.5t22.5 -27t20.5 -24
t14.5 -16.5l1 96h147v-60h-84q0 -23 -0.5 -38.5t-1 -27t-2.5 -24.5q24 -22 48.5 -41.5t39.5 -27.5v-86q-19 1 -52 23t-66 51q-11 -30 -31.5 -47t-46 -23.5t-52.5 -6.5zM192 60q31 0 49.5 16t23.5 42q-32 34 -62.5 68t-50.5 59q-19 -7 -31 -24.5t-12 -52.5q-2 -53 21.5 -80.5
t61.5 -27.5z" />
    <glyph glyph-name="quotesingle" unicode="'" horiz-adv-x="194" 
d="M71 423l-16 207h83l-15 -207h-52z" />
    <glyph glyph-name="parenleft" unicode="(" horiz-adv-x="338" 
d="M283 -120q-55 2 -100.5 33.5t-78 83.5t-50.5 117.5t-18 135.5q0 76 20.5 148t56 131t82 96t99.5 40v-54q-40 -11 -71 -44.5t-53 -82.5t-33.5 -108t-11.5 -121q0 -60 10 -115.5t30 -101t50 -73t68 -31.5v-54z" />
    <glyph glyph-name="parenright" unicode=")" horiz-adv-x="333" 
d="M39 -120v54q40 11 71 44.5t53 82t33.5 108t11.5 122.5q0 59 -10 115t-30 101t-50 73t-68 32v53q55 -2 100.5 -33.5t78 -83t50.5 -117t18 -136.5q0 -74 -20.5 -147t-56 -132t-82 -96t-99.5 -40z" />
    <glyph glyph-name="asterisk" unicode="*" horiz-adv-x="568" 
d="M180 92l-76 55l144 149l-206 29l33 98l184 -98l-33 205h96l-31 -205l185 96l30 -91l-204 -34l146 -148l-77 -54l-95 182z" />
    <glyph glyph-name="plus" unicode="+" horiz-adv-x="471" 
d="M186 84v142h-136v97h136v142h98v-142h137v-97h-137v-142h-98z" />
    <glyph glyph-name="comma" unicode="," horiz-adv-x="208" 
d="M51 -137q13 30 24 56t11 46q0 18 -7 27.5t-14.5 18.5t-7.5 26q0 19 14 33t37 14t36.5 -15t13.5 -38q0 -24 -9.5 -54.5t-24.5 -60t-31 -53.5h-42z" />
    <glyph glyph-name="hyphen" unicode="-" horiz-adv-x="284" 
d="M39 241v64h206v-64h-206z" />
    <glyph glyph-name="period" unicode="." horiz-adv-x="203" 
d="M101 -8q-21 0 -36 14.5t-15 34.5q0 21 15 35t36 14t36.5 -14t15.5 -35q0 -20 -15.5 -34.5t-36.5 -14.5z" />
    <glyph glyph-name="slash" unicode="/" horiz-adv-x="486" 
d="M39 -45l342 675h69l-343 -675h-68z" />
    <glyph glyph-name="zero" unicode="0" horiz-adv-x="396" 
d="M198 -13q-47 1 -83.5 20.5t-57 61.5t-20.5 111v246q0 88 46 130t117 42q69 0 114 -42t45 -130v-245q0 -70 -20.5 -113t-57 -62t-83.5 -19zM198 45q28 0 47 22.5t19 65.5v318q0 44 -19.5 66.5t-46.5 22.5q-28 0 -47 -22.5t-19 -66.5v-318q0 -43 19 -65.5t47 -22.5z" />
    <glyph glyph-name="one" unicode="1" horiz-adv-x="260" 
d="M114 0v469h-99v55h37q31 3 47.5 18t27.5 49h83v-591h-96z" />
    <glyph glyph-name="two" unicode="2" horiz-adv-x="383" 
d="M32 0v58.5v58.5q0 53 13.5 83.5t41 50.5t69.5 41q35 17 57 35t33 44.5t11 65.5q0 43 -14.5 65.5t-49.5 22.5q-33 0 -48.5 -24.5t-15.5 -73.5v-44h-95v69q0 72 41 107t119 35q61 0 96.5 -17t50.5 -52.5t15 -91.5q0 -69 -25 -113t-79 -74q-27 -13 -49.5 -26t-39 -30
t-21.5 -43q-5 -16 -8 -32.5t-4 -35.5h230v-79h-328z" />
    <glyph glyph-name="three" unicode="3" horiz-adv-x="387" 
d="M191 -7q-57 0 -93.5 18t-53.5 51t-17 77v65h96v-42q0 -48 16 -73.5t51 -26.5q32 0 49 23t17 61v57q0 37 -25 54.5t-70 18.5h-51v56h52q21 0 39 6t30 18q12 11 17 24t5 28v39q0 32 -14.5 55t-48.5 23q-36 0 -50 -25.5t-14 -68.5v-28h-97v51q0 68 39.5 104t122.5 36
q86 0 124 -33.5t38 -98.5v-40q0 -51 -25.5 -82t-71.5 -39q48 -5 74 -37t26 -83v-42q0 -47 -16.5 -80t-52.5 -49.5t-96 -16.5z" />
    <glyph glyph-name="four" unicode="4" horiz-adv-x="377" 
d="M208 0v117h-197v76l201 398h92v-409h59v-65h-59v-117h-96zM88 182h120v240z" />
    <glyph glyph-name="five" unicode="5" horiz-adv-x="392" 
d="M197 -8q-59 0 -95.5 12.5t-53 47t-16.5 98.5v44h96v-36q0 -54 16 -75t53 -21q35 0 49.5 24t14.5 75v92q0 24 -5 43.5t-19 31t-42 11.5q-27 0 -44.5 -15.5t-22.5 -41.5h-94v309h311v-70h-216v-164q11 19 35.5 32.5t66.5 13.5q66 0 97.5 -28t31.5 -99v-126q0 -63 -19.5 -97
t-56 -47.5t-87.5 -13.5z" />
    <glyph glyph-name="six" unicode="6" horiz-adv-x="396" 
d="M197 -10q-54 0 -89.5 18.5t-53 54.5t-17.5 85v304q0 71 44 107.5t118 36.5q75 0 116 -34t41 -107v-40h-95v51q0 37 -16 53t-46 16q-31 0 -48.5 -19.5t-17.5 -51.5v-139q16 23 44.5 35.5t59.5 12.5q54 0 89.5 -29.5t35.5 -84.5v-121q0 -44 -19 -77.5t-55 -52t-91 -18.5z
M199 48q30 0 48.5 18.5t18.5 57.5v120q0 36 -20.5 51t-47.5 16q-27 0 -45.5 -15.5t-19.5 -41.5v-130q0 -38 18 -56.5t48 -19.5z" />
    <glyph glyph-name="seven" unicode="7" horiz-adv-x="316" 
d="M40 0l162 522h-192v69h287v-71l-162 -520h-95z" />
    <glyph glyph-name="eight" unicode="8" horiz-adv-x="389" 
d="M195 -8q-56 0 -92.5 18t-53.5 51.5t-17 78.5v36q0 30 5.5 55t21.5 43q11 13 31.5 23t51.5 13q-30 2 -46 10t-30 21q-18 17 -23.5 44t-5.5 57v22q0 43 15 72t50 43.5t93 14.5q59 0 93.5 -14.5t49.5 -43.5t15 -72v-22q0 -35 -9 -62.5t-30 -44.5t-57 -25q33 -3 53 -16
t30 -32.5t13.5 -41.5t3.5 -45v-36q0 -40 -16 -73.5t-51.5 -53.5t-94.5 -20zM194 48q32 0 49 19.5t17 51.5v78q0 33 -16.5 51.5t-49.5 19.5q-33 0 -49.5 -21t-16.5 -50v-78q0 -31 16.5 -50.5t49.5 -20.5zM194 342q26 0 45 20.5t19 56.5v44q0 32 -15 55t-49 23
q-35 0 -49 -23.5t-14 -53.5v-44q0 -25 8.5 -42.5t23 -26.5t31.5 -9z" />
    <glyph glyph-name="nine" unicode="9" horiz-adv-x="394" 
d="M195 -11q-76 0 -116.5 34t-40.5 107v48h95v-59q0 -36 16 -52.5t46 -16.5q31 0 48.5 19.5t17.5 51.5v145q-16 -24 -44.5 -36t-60.5 -12q-35 0 -63 14.5t-44.5 45t-16.5 78.5v91q0 45 18.5 78t55.5 51.5t90 18.5q55 0 90.5 -18.5t53 -54t17.5 -85.5v-304
q0 -71 -44.5 -107.5t-117.5 -36.5zM196 279q27 0 45.5 16t19.5 42v124q0 39 -18 57t-49 19q-28 0 -47.5 -18.5t-19.5 -57.5v-115q0 -35 21 -50.5t48 -16.5z" />
    <glyph glyph-name="colon" unicode=":" horiz-adv-x="203" 
d="M101 270q-21 0 -36 14.5t-15 34.5q0 21 15 35t36 14t36.5 -14t15.5 -35q0 -20 -15.5 -34.5t-36.5 -14.5zM101 -8q-21 0 -36 14.5t-15 34.5q0 21 15 35t36 14t36.5 -14t15.5 -35q0 -20 -15.5 -34.5t-36.5 -14.5z" />
    <glyph glyph-name="semicolon" unicode=";" horiz-adv-x="219" 
d="M61 -137q13 30 24 56t11 46q0 18 -7 27.5t-14.5 18.5t-7.5 26q0 19 14 33t37 14t36.5 -15t13.5 -38q0 -24 -9.5 -54.5t-24.5 -60t-31 -53.5h-42zM105 270q-21 0 -36 14.5t-15 34.5q0 21 15 35t36 14t36.5 -14t15.5 -35q0 -20 -15.5 -34.5t-36.5 -14.5z" />
    <glyph glyph-name="less" unicode="&#x3c;" horiz-adv-x="329" 
d="M285 136l-241 164v56l241 164v-88l-162 -105l162 -105v-86z" />
    <glyph glyph-name="equal" unicode="=" horiz-adv-x="432" 
d="M50 351v65h332v-65h-332zM50 144v66h332v-66h-332z" />
    <glyph glyph-name="greater" unicode="&#x3e;" horiz-adv-x="329" 
d="M44 136v88l161 105l-161 106v85l241 -164v-56z" />
    <glyph glyph-name="question" unicode="?" horiz-adv-x="392" 
d="M120 156v123q16 1 31 3.5t29 5.5q18 5 35.5 16.5t29 32t11.5 50.5v50q0 39 -15 63t-49 24q-33 0 -46.5 -22t-13.5 -59v-51h-96v60q0 142 157 142q59 0 95 -16t51.5 -50t15.5 -90v-37q0 -44 -16 -77t-41 -52t-56 -24q-9 -2 -18.5 -2.5t-20.5 -0.5v-89h-83zM160 -7
q-22 0 -36.5 14t-14.5 35q0 20 14.5 34.5t36.5 14.5q21 0 36.5 -14.5t15.5 -34.5q0 -21 -15.5 -35t-36.5 -14z" />
    <glyph glyph-name="at" unicode="@" horiz-adv-x="730" 
d="M354 -67q-118 0 -185 37t-94 108t-27 173q0 162 73.5 251.5t236.5 90.5q92 1 164 -29.5t113.5 -96t41.5 -171.5q0 -71 -17 -123t-47.5 -80t-73.5 -28q-31 0 -54 15.5t-36 39.5t-15 52l22 -4q-18 -45 -49 -64t-74 -19q-48 0 -76.5 23t-28.5 81q0 28 8.5 49t35 38t79.5 31
q24 6 40.5 16.5t21.5 18.5q5 6 6.5 13.5t1.5 15.5q0 24 -12 35.5t-43 11.5q-34 0 -47.5 -13.5t-13.5 -42.5v-30h-67v33q0 33 10.5 54.5t38 31.5t78.5 10q53 0 81 -11.5t38.5 -34.5t10.5 -59v-174q0 -42 16 -59.5t40 -17.5q20 0 37 17t27.5 57t10.5 107q0 81 -28 141t-86 93
t-147 33t-148 -29t-88 -95.5t-29 -179.5q0 -85 19 -139t54 -83t83 -40.5t106 -12.5q20 0 52 3t68 8.5t67.5 13.5t49.5 17v-40q-19 -8 -55 -18.5t-84 -17.5t-106 -7zM355 136q25 0 40.5 11t23 26t7.5 28v88q-16 -3 -35 -9t-35 -14q-21 -9 -34 -18.5t-19 -22t-6 -32.5
q0 -29 12 -43t46 -14z" />
    <glyph glyph-name="A" unicode="A" 
d="M11 0l115 591h134l113 -591h-106l-24 120h-108l-22 -120h-102zM137 169h105l-52 329z" />
    <glyph glyph-name="B" unicode="B" horiz-adv-x="408" 
d="M50 0v591h199q54 0 84 -25t30 -74v-69q0 -27 -7.5 -48.5t-22.5 -35.5q-13 -13 -30.5 -18t-32.5 -6v0q18 0 35 -4t31 -16q16 -14 25.5 -36t9.5 -54v-82q0 -50 -16.5 -76.5t-46 -36.5t-70.5 -10h-188zM146 51h71q18 0 30.5 6t19.5 23t7 49v75q0 42 -17.5 55.5t-45.5 13.5
h-65v-222zM146 335h63q30 0 46 18t16 59v63q0 33 -14.5 48t-36.5 15h-74v-203z" />
    <glyph glyph-name="C" unicode="C" horiz-adv-x="398" 
d="M202 -12q-46 0 -82.5 11t-57 45.5t-20.5 103.5v319q0 54 20.5 82.5t57 39.5t83.5 11q48 0 83 -11.5t55 -40t20 -81.5v-116h-96v119q0 31 -8 45.5t-22 19.5t-32 5t-32 -5t-22 -19.5t-8 -45.5v-355q0 -30 8 -45t22 -20t32 -5q19 0 32.5 5t21.5 20t8 45v106h96v-72
q0 -71 -20 -105t-55 -45t-84 -11z" />
    <glyph glyph-name="D" unicode="D" horiz-adv-x="411" 
d="M50 0v591h196q40 0 67 -12t41.5 -37t14.5 -65v-350q0 -49 -17 -77t-47.5 -39t-71.5 -11h-183zM149 51h69q25 0 40 14.5t15 54.5v346q0 40 -15 55t-40 15h-69v-485z" />
    <glyph glyph-name="E" unicode="E" horiz-adv-x="337" 
d="M50 0v591h266v-68h-166v-179h137v-75h-137v-203h166v-66h-266z" />
    <glyph glyph-name="F" unicode="F" horiz-adv-x="331" 
d="M50 0v591h266v-68h-166v-179h137v-75h-137v-269h-100z" />
    <glyph glyph-name="G" unicode="G" horiz-adv-x="400" 
d="M173 -11q-34 0 -64 10.5t-48.5 42t-18.5 94.5v330q0 54 20 82.5t56 39t83 10.5t83 -11t56.5 -39.5t20.5 -81.5v-80h-93v84q0 30 -8.5 45t-23 20t-34.5 5q-18 0 -33 -5t-23.5 -20t-8.5 -45v-355q0 -30 8.5 -45t23.5 -20t33 -5q29 0 47.5 17.5t18.5 52.5v120h-59v55h152
v-290h-72l-5 50q-2 -4 -5 -8.5l-5 -7.5q-12 -18 -35.5 -31.5t-65.5 -13.5z" />
    <glyph glyph-name="H" unicode="H" horiz-adv-x="417" 
d="M50 0v591h95v-248h127v248h95v-591h-95v271h-127v-271h-95z" />
    <glyph glyph-name="I" unicode="I" horiz-adv-x="195" 
d="M50 0v591h95v-591h-95z" />
    <glyph glyph-name="J" unicode="J" horiz-adv-x="234" 
d="M51 -1h-22t-23 1v67l32 -1q31 0 42 11t11 44v470h96v-451q0 -54 -12 -85t-41.5 -43.5t-82.5 -12.5z" />
    <glyph glyph-name="K" unicode="K" horiz-adv-x="396" 
d="M282 0l-128 307l125 284h103l-134 -284l139 -307h-105zM50 0v591h95v-591h-95z" />
    <glyph glyph-name="L" unicode="L" horiz-adv-x="298" 
d="M50 0v591h94v-525h147v-66h-241z" />
    <glyph glyph-name="M" unicode="M" horiz-adv-x="533" 
d="M50 0v591h118l99 -420l100 420h117v-591h-85v456l-99 -456h-66l-99 456v-456h-85z" />
    <glyph glyph-name="N" unicode="N" horiz-adv-x="415" 
d="M50 0v591h83l147 -398v398h85v-591h-84l-146 377v-377h-85z" />
    <glyph glyph-name="O" unicode="O" horiz-adv-x="403" 
d="M200 -12q-47 0 -82.5 11t-55.5 45.5t-20 103.5v319q0 54 20 82.5t56 39.5t83 11t82.5 -11.5t56.5 -40t21 -81.5v-318q0 -71 -21 -105t-57 -45t-83 -11zM200 45q19 0 34 5.5t23 20.5t8 44v355q0 28 -8 43.5t-23 21t-34 5.5t-33.5 -5.5t-22.5 -21t-8 -43.5v-355
q0 -29 8 -44t22.5 -20.5t33.5 -5.5z" />
    <glyph glyph-name="P" unicode="P" horiz-adv-x="391" 
d="M50 0v591h200q56 0 86 -25t30 -74v-105q0 -38 -9.5 -70.5t-36 -52.5t-76.5 -20h-94v-244h-100zM150 298h61q30 0 45 23.5t15 76.5v53q0 47 -13 67t-36 20h-72v-240z" />
    <glyph glyph-name="Q" unicode="Q" horiz-adv-x="407" 
d="M295 -121l-64 113q-7 -1 -14 -1.5t-16 -0.5q-47 0 -82.5 11t-56 45.5t-20.5 103.5v317q0 54 21 82.5t58 39.5t85 11t83.5 -11.5t55.5 -40t20 -81.5v-316q0 -60 -15.5 -92.5t-43.5 -47.5l55 -94zM205 47q19 0 33.5 5t22.5 20t8 45v353q0 30 -8 45t-22.5 20t-33.5 5
t-33.5 -5t-22.5 -20t-8 -45v-353q0 -30 8 -45t22.5 -20t33.5 -5z" />
    <glyph glyph-name="R" unicode="R" horiz-adv-x="417" 
d="M50 0v591h204q56 0 86.5 -25t30.5 -74v-94q0 -49 -27 -79.5t-80 -33.5v0q34 -3 48.5 -22t26.5 -59l57 -204h-106l-47 197q-7 25 -16 44t-29 19h-49v-260h-99zM149 327h64q35 0 49.5 18t14.5 55v75q0 33 -13.5 48t-41.5 15h-73v-211z" />
    <glyph glyph-name="S" unicode="S" 
d="M188 -7q-49 0 -85 15t-54.5 53t-18.5 107v34h49h49v-42q0 -42 8 -65t22 -31.5t32 -8.5q29 0 46.5 19.5t17.5 73.5q0 40 -12 60t-37.5 32.5t-65.5 28.5q-33 15 -57 35t-36 51t-12 77q0 56 14.5 91.5t49.5 52t94 16.5q76 0 116 -34.5t40 -100.5v-69h-46.5h-47.5v41
q0 46 -14.5 66.5t-46.5 20.5q-33 0 -47.5 -19.5t-14.5 -61.5q0 -36 14 -55.5t36.5 -30.5t46.5 -20q45 -17 73 -35t41 -48t13 -85q0 -63 -20.5 -99.5t-58 -52.5t-88.5 -16z" />
    <glyph glyph-name="T" unicode="T" horiz-adv-x="306" 
d="M104 0v523h-94v68h286v-68h-96v-523h-96z" />
    <glyph glyph-name="U" unicode="U" horiz-adv-x="410" 
d="M205 -12q-34 0 -63 5t-50 20t-33 45t-12 81v452h96v-477q0 -27 8.5 -41.5t22.5 -19.5t31 -5t31 5t22.5 19.5t8.5 41.5v477h95v-451q0 -51 -11.5 -81.5t-32.5 -45.5t-50 -20t-63 -5z" />
    <glyph glyph-name="V" unicode="V" horiz-adv-x="368" 
d="M118 0l-102 591h98l71 -484h-1l73 484h95l-103 -591h-131z" />
    <glyph glyph-name="W" unicode="W" horiz-adv-x="579" 
d="M107 0l-91 591h98l63 -465l73 465h79l71 -465l65 465h98l-91 -591h-111l-72 384l-70 -384h-112z" />
    <glyph glyph-name="X" unicode="X" horiz-adv-x="349" 
d="M13 0l90 303l-84 288h95l60 -217l62 217h100l-88 -289l86 -302h-96l-63 217l-61 -217h-101z" />
    <glyph glyph-name="Y" unicode="Y" horiz-adv-x="345" 
d="M122 0v254l-110 337h95l62 -202l5 -31l6 31l65 202h89l-116 -342v-249h-96z" />
    <glyph glyph-name="Z" unicode="Z" horiz-adv-x="288" 
d="M16 0v62l148 461h-137v68h246v-50l-154 -473h154v-68h-257z" />
    <glyph glyph-name="bracketleft" unicode="[" horiz-adv-x="303" 
d="M45 -57v687h213v-51h-125v-585h125v-51h-213z" />
    <glyph glyph-name="backslash" unicode="\" horiz-adv-x="540" 
d="M382 -45l-343 675h69l342 -675h-68z" />
    <glyph glyph-name="bracketright" unicode="]" horiz-adv-x="303" 
d="M45 -57v51h124v585h-124v51h213v-687h-213z" />
    <glyph glyph-name="asciicircum" unicode="^" horiz-adv-x="410" 
d="M39 495l143 197h47l142 -197h-79l-87 122l-85 -122h-81z" />
    <glyph glyph-name="underscore" unicode="_" horiz-adv-x="722" 
d="M39 -118v48h644v-48h-644z" />
    <glyph glyph-name="grave" unicode="`" horiz-adv-x="177" 
d="M96 547l-91 97h87l58 -97h-54z" />
    <glyph glyph-name="a" unicode="a" horiz-adv-x="366" 
d="M132 -8q-25 0 -47.5 7t-38 29.5t-15.5 69.5v59q0 49 28.5 78.5t85.5 52.5q33 14 52.5 25t28.5 26t9 41v25q0 19 -7.5 29t-19 14.5t-26.5 4.5q-33 0 -43.5 -20t-10.5 -64v-42h-85v51q0 37 10 65.5t40 45t89 16.5q61 0 92.5 -12t43.5 -36.5t12 -62.5v-394h-94v57
q-10 -31 -39.5 -48t-64.5 -17zM171 55q34 0 48.5 24.5t14.5 68.5v139q-7 -12 -25 -22t-35 -21q-25 -15 -38 -31.5t-13 -45.5v-47q0 -27 6.5 -41.5t18 -19t23.5 -4.5z" />
    <glyph glyph-name="b" unicode="b" horiz-adv-x="374" 
d="M212 -7q-46 0 -68.5 17t-30.5 35l-3 -45h-67v630h94v-174q10 21 32 34.5t58 13.5q34 0 59.5 -10.5t39.5 -36.5t14 -75v-242q0 -46 -8 -75t-24.5 -44.5t-40.5 -21.5t-55 -6zM192 58q22 0 33.5 6.5t16 22t4.5 42.5v247q0 39 -12 53t-42 14t-42.5 -16t-12.5 -49v-245
q0 -40 13 -57.5t42 -17.5z" />
    <glyph glyph-name="c" unicode="c" horiz-adv-x="358" 
d="M185 -8q-51 0 -84.5 11t-50 44t-16.5 98v228q0 75 36 103t112 28t112 -27t36 -98v-69h-94v73q0 35 -11 50t-43 15q-31 0 -42.5 -15t-11.5 -50v-267q0 -37 11.5 -52t44.5 -15q30 0 41 14.5t11 52.5v78h94v-49q0 -64 -16.5 -97.5t-49 -44.5t-79.5 -11z" />
    <glyph glyph-name="d" unicode="d" horiz-adv-x="374" 
d="M161 -7q-34 0 -58 7.5t-39.5 24t-22.5 45t-7 70.5v243q0 31 7.5 53.5t21.5 37t35 21.5t47 7q41 0 61.5 -12t30.5 -28v168h94v-630h-64l-10 47q-5 -11 -16 -23.5t-30 -21.5t-50 -9zM181 47q20 0 31.5 7.5t16.5 20t6.5 27.5t1.5 31v280q-2 6 -7.5 13.5t-17 13t-30.5 5.5
q-20 0 -31 -5.5t-16 -16t-6 -23.5t-1 -28v-252q0 -20 2.5 -36.5t14 -26.5t36.5 -10z" />
    <glyph glyph-name="e" unicode="e" horiz-adv-x="358" 
d="M185 -8q-51 0 -84.5 11.5t-50 44.5t-16.5 99v232q0 72 36 98.5t112 26.5t112 -26.5t36 -98.5v-132h-202v-137q0 -37 11.5 -52t44.5 -15q30 0 41 14.5t11 52.5v73h94v-35q0 -65 -16.5 -99t-48.5 -45.5t-80 -11.5zM128 291h108v92q0 34 -11 49t-43 15q-31 0 -42.5 -15
t-11.5 -49v-92z" />
    <glyph glyph-name="f" unicode="f" horiz-adv-x="236" 
d="M48 0v421h-31v55h31v52q0 32 8.5 53t22.5 32t32.5 15.5t38.5 4.5q18 0 37 -1t35 -2.5t21 -1.5v-47q-10 2 -24 3t-33 1q-23 0 -33.5 -12.5t-10.5 -43.5v-53h101v-55h-101v-421h-94z" />
    <glyph glyph-name="g" unicode="g" horiz-adv-x="368" 
d="M179 -119q-13 0 -31.5 1.5t-35.5 3t-29.5 3t-15.5 2.5v51q13 -2 37.5 -4.5t42.5 -2.5q15 0 30.5 2.5t29 10.5t21.5 25t8 46v70q-5 -15 -15.5 -29.5t-29.5 -24t-50 -9.5q-22 0 -41.5 5t-34 19.5t-23 43t-8.5 74.5v212q0 64 26 94.5t82 30.5q29 0 49.5 -8t34 -22t19.5 -34
l-13 -1l15 55h83v-434q0 -36 -7.5 -69t-24.5 -57.5t-46 -39t-73 -14.5zM179 83q24 0 36 11.5t16.5 31t4.5 40.5v243q-3 7 -9.5 14.5t-17.5 12.5t-30 5q-27 0 -39 -14t-12 -51v-232q0 -21 5 -33t13.5 -18t17.5 -8t15 -2z" />
    <glyph glyph-name="h" unicode="h" horiz-adv-x="377" 
d="M43 0v630h88v-183q13 27 36.5 42t59.5 15q49 0 73.5 -17t32.5 -46.5t8 -67.5v-373h-94v366q0 12 -1 24.5t-6 23t-16.5 17t-32.5 6.5q-18 0 -30 -5.5t-17.5 -13t-6.5 -12.5v-406h-94z" />
    <glyph glyph-name="i" unicode="i" horiz-adv-x="180" 
d="M43 0v495h94v-495h-94zM90 553q-20 0 -33.5 13t-13.5 32t13.5 32t33.5 13q19 0 33.5 -13t14.5 -32t-14.5 -32t-33.5 -13z" />
    <glyph glyph-name="j" unicode="j" horiz-adv-x="178" 
d="M-24 -112q-6 1 -18 1.5t-16 1.5v51q7 -1 18 -0.5t18 0.5q31 1 48 15t17 43v495h94v-469q0 -60 -22.5 -90.5t-59 -40t-79.5 -7.5zM89 553q-20 0 -33.5 13t-13.5 32t13.5 32t33.5 13q19 0 33.5 -13t14.5 -32t-14.5 -32t-33.5 -13z" />
    <glyph glyph-name="k" unicode="k" horiz-adv-x="363" 
d="M250 0l-102 287l111 208h93l-114 -209l114 -286h-102zM43 0v633h94v-633h-94z" />
    <glyph glyph-name="l" unicode="l" horiz-adv-x="180" 
d="M43 0v633h94v-633h-94z" />
    <glyph glyph-name="m" unicode="m" horiz-adv-x="573" 
d="M43 0v495h80l8 -57q11 29 36.5 47.5t60.5 18.5q57 0 81 -24t26 -70h-12q7 40 35.5 67t70.5 27q64 0 86.5 -30.5t22.5 -91.5v-382h-94v372q0 36 -11.5 50t-37.5 14q-23 0 -39 -12.5t-19 -32.5v-391h-94v377q0 32 -10.5 45.5t-38.5 13.5q-23 0 -36.5 -10.5t-20.5 -25.5
v-400h-94z" />
    <glyph glyph-name="n" unicode="n" horiz-adv-x="377" 
d="M43 0v495h79l9 -56q9 30 36.5 48t59.5 18q49 0 73.5 -17.5t32.5 -47t8 -67.5v-373h-94v366q0 14 -1 26.5t-6 22.5t-16 16t-32 6q-17 0 -28.5 -6t-17.5 -14.5t-9 -16.5v-400h-94z" />
    <glyph glyph-name="o" unicode="o" horiz-adv-x="364" 
d="M183 -8q-49 0 -82.5 12.5t-50 46.5t-16.5 98v218q0 75 36 106t113 31q76 0 112 -30.5t36 -106.5v-218q0 -64 -16.5 -98t-49.5 -46.5t-82 -12.5zM183 49q29 0 41.5 15.5t12.5 55.5v255q0 39 -12 55t-42 16q-29 0 -42 -15.5t-13 -55.5v-255q0 -40 13 -55.5t42 -15.5z" />
    <glyph glyph-name="p" unicode="p" horiz-adv-x="374" 
d="M43 -116v611h91l2 -41q9 19 28 34t62 15q39 0 64.5 -13.5t37.5 -40t12 -67.5v-242q0 -50 -11 -82.5t-36 -48t-67 -15.5q-37 0 -58 12t-31 29v-151h-94zM192 48q20 0 31 5.5t16 15.5t6 23t1 28v251q0 15 -1 28t-6 23.5t-16 16t-31 5.5t-31 -7t-16 -17.5t-6.5 -23.5
t-1.5 -24v-256q0 -20 4 -35.5t15.5 -24t35.5 -8.5z" />
    <glyph glyph-name="q" unicode="q" horiz-adv-x="374" 
d="M237 -116v165q-8 -22 -29.5 -39.5t-61.5 -17.5q-28 0 -49.5 7.5t-35.5 24.5t-20.5 45t-6.5 70v243q0 31 7.5 53t21.5 36.5t35 22t47 7.5q44 0 64 -14t28 -31l3 39h91v-611h-94zM182 46q18 0 29 8t17 20.5t7.5 25t1.5 22.5v250q0 11 -1.5 24t-6.5 23.5t-16 17.5t-31 7
t-31 -5.5t-16 -16t-6 -23.5t-1 -28v-252q0 -15 1 -28t6 -23t16 -16t31 -6z" />
    <glyph glyph-name="r" unicode="r" horiz-adv-x="271" 
d="M43 0v495h80l8 -57q10 25 31 37.5t43 17.5q31 11 63 4v-73q-3 1 -15 2.5t-27 0.5t-26 -7q-29 -7 -46 -28.5t-17 -53.5v-338h-94z" />
    <glyph glyph-name="s" unicode="s" horiz-adv-x="360" 
d="M179 -7q-59 0 -92 14.5t-46 46.5t-13 81v41h95v-62q0 -38 11.5 -53.5t43.5 -15.5q28 0 40.5 15t12.5 47v34q0 23 -8.5 38.5t-27.5 26.5t-50 24q-29 12 -53.5 26t-39 37t-14.5 59v30q0 59 33 90t116 31q54 0 85.5 -14t45 -44.5t13.5 -78.5v-38h-91v52q0 40 -12.5 55.5
t-40.5 15.5q-31 0 -42 -16t-11 -39v-33q0 -27 13.5 -42.5t35.5 -25t50 -21.5q27 -10 49.5 -23.5t35.5 -36t13 -60.5v-27q0 -44 -14 -73.5t-47 -45t-91 -15.5z" />
    <glyph glyph-name="t" unicode="t" horiz-adv-x="263" 
d="M174 -3q-22 0 -43 5t-37 16.5t-25.5 32t-9.5 52.5v335h-46v48l54 9l14 92h72v-92h99v-57h-99v-319q0 -23 9 -40.5t39 -17.5q13 0 29.5 1.5t21.5 1.5v-57q-5 -1 -28 -5.5t-50 -4.5z" />
    <glyph glyph-name="u" unicode="u" horiz-adv-x="380" 
d="M153 -7q-50 0 -74.5 17t-32 46.5t-7.5 67.5v371h94v-364q0 -18 2.5 -34t14 -26.5t37.5 -10.5q19 0 30 6t17 14.5t8 16.5v398h94v-495h-80l-7 57q-9 -26 -33.5 -45t-62.5 -19z" />
    <glyph glyph-name="v" unicode="v" horiz-adv-x="351" 
d="M121 0l-110 495h97l75 -389h-1l69 389h89l-107 -495h-112z" />
    <glyph glyph-name="w" unicode="w" horiz-adv-x="569" 
d="M114 0l-106 495h89l72 -380l71 380h90l76 -380l66 380h89l-104 -495h-108l-64 313l-63 -313h-108z" />
    <glyph glyph-name="x" unicode="x" horiz-adv-x="334" 
d="M3 0l104 259l-86 236h89l59 -164l67 164h87l-94 -236l97 -259h-90l-67 179l-73 -179h-93z" />
    <glyph glyph-name="y" unicode="y" horiz-adv-x="337" 
d="M88 -117q-26 0 -48 4t-35 7v51q6 -1 16.5 -3.5t24.5 -2.5t31 4.5t25 26.5q4 9 8.5 20.5t1.5 26.5l-107 478h97l73 -403v0l71 403h89l-101 -461q-16 -79 -51 -115t-95 -36z" />
    <glyph glyph-name="z" unicode="z" horiz-adv-x="277" 
d="M11 0v37l147 396h-135v62h242v-41l-145 -388h145v-66h-254z" />
    <glyph glyph-name="braceleft" unicode="{" horiz-adv-x="323" 
d="M265 -136q-70 2 -112.5 22t-61 51t-18.5 67q0 34 11 59.5t25 45.5t24.5 39t10.5 41q0 19 -11.5 32.5t-30 21.5t-42.5 9v28q21 1 39.5 9.5t30.5 24t12 35.5q0 19 -10.5 37.5t-24 38.5t-24 44t-10.5 54q0 39 18 69.5t59.5 49.5t114.5 23v-53q-25 -4 -46 -11t-33 -24.5
t-12 -53.5q0 -29 8 -51.5t19 -41.5t19 -40t8 -47q0 -14 -7 -30.5t-24 -29t-45 -17.5q35 -6 56 -24t21 -50q0 -23 -7.5 -43t-17.5 -40t-17.5 -43t-7.5 -53q0 -36 13.5 -56.5t33.5 -30t39 -11.5v-51z" />
    <glyph glyph-name="bar" unicode="|" horiz-adv-x="265" 
d="M91 -241v871h82v-871h-82z" />
    <glyph glyph-name="braceright" unicode="}" horiz-adv-x="323" 
d="M58 -136v51q19 2 39 11.5t33.5 30t13.5 56.5q0 30 -7.5 53t-17.5 43t-17 40t-7 43q0 32 21 50t56 24q-28 5 -45 17.5t-24.5 29t-7.5 30.5q0 26 8.5 47t19 40t19 41.5t8.5 51.5q0 36 -12.5 53.5t-33 24.5t-46.5 11v53q73 -4 115 -23t59.5 -49.5t17.5 -69.5
q0 -30 -10.5 -54t-24 -44t-24 -38.5t-10.5 -37.5q0 -20 12 -35.5t31 -24t39 -9.5v-28q-23 -1 -42 -9t-30.5 -21.5t-11.5 -32.5q0 -22 11 -41t25 -39t24.5 -45.5t10.5 -59.5q0 -36 -18.5 -67t-60.5 -51t-113 -22z" />
    <glyph glyph-name="asciitilde" unicode="~" horiz-adv-x="509" 
d="M351 508q-35 1 -66 12t-63 22t-69 12q-27 1 -44 -13.5t-19 -32.5h-51q2 32 17.5 57t41.5 38.5t60 12.5q33 0 63.5 -10.5t62 -21t65.5 -11.5q32 -1 47 12.5t17 29.5h56q-1 -44 -19.5 -67.5t-45 -31.5t-53.5 -8z" />
    <glyph glyph-name="uni00A0" unicode="&#xa0;" horiz-adv-x="173" 
 />
    <glyph glyph-name="exclamdown" unicode="&#xa1;" horiz-adv-x="203" 
d="M70 299h59l18 -179l4 -260h-102l5 262zM103 496q23 0 39.5 -14.5t16.5 -36.5q0 -20 -16.5 -35t-39.5 -15t-39 15t-16 35q0 22 16 36.5t39 14.5z" />
    <glyph glyph-name="cent" unicode="&#xa2;" horiz-adv-x="359" 
d="M151 -65v114q-33 3 -58.5 14t-39.5 39t-14 81v268q0 40 14 63.5t39.5 34.5t58.5 13v86h61v-88q31 -4 55.5 -15t38.5 -33.5t14 -60.5v-96h-83v100q0 25 -8 37t-20.5 16.5t-28.5 4.5t-29 -4.5t-21 -16.5t-8 -37v-298q0 -26 8 -38.5t21 -17t29 -4.5t29 4.5t20.5 17t7.5 38.5
v88h83v-62q0 -48 -14.5 -76t-38.5 -40t-55 -15v-117h-61z" />
    <glyph glyph-name="sterling" unicode="&#xa3;" horiz-adv-x="414" 
d="M34 0v39q22 27 40 62.5t29 76.5t9 83h-74v58h68q-7 27 -17 53t-18.5 53.5t-8.5 56.5q0 52 38 83.5t118 31.5q73 0 115 -30.5t42 -94.5v-44h-83v44q0 26 -11 43.5t-28 27t-36 9.5q-29 0 -50 -16.5t-21 -48.5q0 -25 10 -52t20.5 -56t13.5 -60h75v-58h-76
q-2 -41 -13.5 -78.5t-27.5 -68t-33 -50.5q19 2 33.5 3t32 -0.5t42.5 -3.5q45 -3 58 8.5t13 52.5v41h81v-52q0 -56 -15 -79t-41 -30q-29 -6 -63 -2t-71 10.5t-74 6.5q-33 0 -50.5 -6t-26.5 -13z" />
    <glyph glyph-name="currency" unicode="&#xa4;" horiz-adv-x="499" 
d="M89 95l-46 46l87 86q-12 17 -18.5 35t-6.5 38q0 41 24 75l-90 90l44 45l93 -92q34 19 71 19q38 0 73 -19l91 90l45 -45l-89 -89q23 -34 23 -74q0 -38 -22 -71l92 -92l-45 -45l-94 94q-18 -10 -36.5 -15.5t-37.5 -5.5q-39 0 -71 18zM247 230q30 0 50.5 20.5t20.5 49.5
q0 30 -20.5 51t-50.5 21t-50 -20.5t-20 -51.5q0 -29 20 -49.5t50 -20.5z" />
    <glyph glyph-name="yen" unicode="&#xa5;" horiz-adv-x="379" 
d="M138 0v127h-88v49h88v70h-88v49h75l-97 296h96l67 -216l71 216h89l-103 -296h69v-49h-83v-70h83v-49h-83v-127h-96z" />
    <glyph glyph-name="brokenbar" unicode="&#xa6;" horiz-adv-x="228" 
d="M73 -168v342h82v-342h-82zM73 271v314h82v-314h-82z" />
    <glyph glyph-name="section" unicode="&#xa7;" horiz-adv-x="449" 
d="M197 -159q-50 0 -85 15t-53.5 53t-18.5 106v24h99v-40q0 -42 8 -64.5t21.5 -31t31.5 -8.5q30 0 47.5 19.5t17.5 73.5q0 40 -12 61.5t-37 34.5t-64 28q-35 15 -60 32.5t-38 44.5t-13 65q0 47 14.5 75.5t38.5 45t54 26.5l17 -34q-18 -13 -30 -36t-12 -59q0 -32 12.5 -51.5
t36.5 -32t58 -25.5q32 -12 56.5 -23t41 -26t24.5 -39.5t8 -65.5q0 -63 -20.5 -100t-57 -52.5t-85.5 -15.5zM297 23l-31 48q26 15 43 36.5t17 65.5q0 40 -20 62t-53 36t-73 29q-31 14 -54 29.5t-34.5 40.5t-11.5 66q0 56 15 91t49.5 52t93.5 17q76 0 116.5 -34.5t40.5 -101.5
v-52h-94v60q0 33 -14.5 51.5t-47.5 18.5t-47 -20t-14 -61t13.5 -63t37 -33.5t51.5 -22.5q44 -16 72.5 -33t42.5 -44.5t14 -80.5q0 -46 -15.5 -77.5t-41 -50.5t-55.5 -29z" />
    <glyph glyph-name="dieresis" unicode="&#xa8;" horiz-adv-x="215" 
d="M42 551q-18 0 -30 12t-12 29t12 28.5t30 11.5t29.5 -11.5t11.5 -28.5t-11.5 -29t-29.5 -12zM153 551q-18 0 -30 12t-12 29t12 28.5t30 11.5t30 -11.5t12 -28.5t-12 -29t-30 -12z" />
    <glyph glyph-name="copyright" unicode="&#xa9;" horiz-adv-x="600" 
d="M317 30q-58 0 -109 21.5t-90 60.5t-60.5 90t-21.5 109q0 59 21.5 109.5t60.5 89t90 60t109 21.5t109 -21.5t89.5 -60t60 -89t21.5 -109.5q0 -58 -21.5 -109t-60 -90t-89.5 -60.5t-109 -21.5zM317 68q50 0 94 19t77 53t51.5 78t18.5 94q0 66 -32.5 121t-87 87.5
t-121.5 32.5q-50 0 -93.5 -19t-77 -52t-52.5 -77t-19 -94q0 -49 19 -93t52.5 -78t77 -53t93.5 -19zM320 152q-35 0 -58.5 7.5t-35 29t-11.5 64.5v147q0 50 25 68t78 18t78 -17.5t25 -64.5v-45h-64v49q0 21 -8 30.5t-31 9.5t-31 -9.5t-8 -30.5v-175q0 -24 8 -33.5t32 -9.5
q22 0 30 9t8 34v52h64v-32q0 -42 -11.5 -64t-34 -29.5t-55.5 -7.5z" />
    <glyph glyph-name="ordfeminine" unicode="&#xaa;" horiz-adv-x="230" 
d="M90 259q-15 0 -29 4.5t-23 17.5t-9 42v35q0 29 17.5 47t50.5 32q29 12 41.5 22t12.5 33v15q0 17 -9 23t-22 6q-20 0 -26 -12.5t-6 -37.5v-26h-52v31q0 22 6.5 39t24 27t53.5 10t55 -7t26.5 -22t7.5 -37v-237h-57v34q-6 -18 -23.5 -28.5t-38.5 -10.5zM113 297
q21 0 29.5 14.5t8.5 41.5v83q-5 -7 -15.5 -13t-20.5 -13q-15 -9 -23 -18.5t-8 -27.5v-28q0 -16 4 -24.5t11 -11.5t14 -3z" />
    <glyph glyph-name="guillemotleft" unicode="&#xab;" horiz-adv-x="505" 
d="M375 106l-129 184l133 192h86l-132 -192l128 -184h-86zM167 106l-128 184l134 192h86l-132 -192l127 -184h-87z" />
    <glyph glyph-name="logicalnot" unicode="&#xac;" horiz-adv-x="558" 
d="M456 149v188h-413v69h476v-257h-63z" />
    <glyph glyph-name="uni00AD" unicode="&#xad;" horiz-adv-x="140" 
 />
    <glyph glyph-name="registered" unicode="&#xae;" horiz-adv-x="390" 
d="M195 279q-43 0 -78.5 21t-56.5 56.5t-21 78.5t21 78.5t56.5 56.5t78.5 21q44 0 79 -21t56 -56.5t21 -78.5t-21 -78.5t-56 -56.5t-79 -21zM195 302q37 0 66.5 18.5t47 48.5t17.5 66q0 37 -17.5 67t-47 47.5t-66.5 17.5q-35 0 -65 -17.5t-48 -47.5t-18 -67q0 -36 18 -66
t48 -48.5t65 -18.5zM145 357v164h62q24 0 32.5 -10t8.5 -29q0 -17 -6 -30.5t-27 -16.5q3 -1 6 -7.5t4 -8.5l32 -62h-28q-5 12 -11.5 26t-12.5 27.5t-12 21.5h-25v-75h-23zM168 446h24q20 0 27 9t7 25q0 11 -5 18t-20 7h-33v-59z" />
    <glyph glyph-name="macron" unicode="&#xaf;" horiz-adv-x="218" 
d="M10 563v48h198v-48h-198z" />
    <glyph glyph-name="degree" unicode="&#xb0;" horiz-adv-x="327" 
d="M163 348q-64 0 -94 35.5t-30 85.5q0 51 28.5 86.5t97.5 35.5q46 0 73 -16.5t38.5 -44t11.5 -59.5q0 -54 -30.5 -88.5t-94.5 -34.5zM164 392q34 0 53 21.5t19 56.5q0 31 -18.5 54.5t-54.5 23.5q-33 0 -52.5 -22.5t-19.5 -56.5t21 -55.5t52 -21.5z" />
    <glyph glyph-name="plusminus" unicode="&#xb1;" horiz-adv-x="417" 
d="M174 163v141h-135v66h135v141h68v-141h136v-66h-136v-141h-68zM39 0v63h339v-63h-339z" />
    <glyph glyph-name="uni00B2" unicode="&#xb2;" horiz-adv-x="248" 
d="M30 237v53q0 47 13.5 71.5t58.5 45.5q38 19 50.5 38t12.5 51q0 26 -8 40.5t-30 14.5q-18 0 -28.5 -12t-10.5 -40v-39h-60v29q0 58 24.5 81.5t76.5 23.5q41 0 62.5 -11.5t29.5 -32.5t8 -47q0 -36 -10 -58.5t-26.5 -37.5t-39.5 -28q-36 -20 -49 -32.5t-16 -27.5
q-3 -8 -3 -16.5v-15.5h144v-50h-199z" />
    <glyph glyph-name="uni00B3" unicode="&#xb3;" horiz-adv-x="251" 
d="M123 236q-56 0 -81 24t-25 64v39h63v-23q0 -27 10 -42.5t32 -15.5q21 -1 32 13t11 34v35q0 20 -15.5 30t-45.5 10h-33v36h33q32 0 46 12t14 32v23q0 18 -9.5 31.5t-31.5 13.5q-24 0 -33 -16t-9 -40v-15h-63v31q0 41 26 63t79 22q60 0 82.5 -21.5t22.5 -57.5v-26
q0 -30 -16.5 -48.5t-45.5 -23.5q31 -2 47.5 -21.5t16.5 -49.5v-25q0 -41 -23 -64.5t-84 -23.5z" />
    <glyph glyph-name="acute" unicode="&#xb4;" horiz-adv-x="168" 
d="M0 547l57 97h87l-90 -97h-54z" />
    <glyph glyph-name="uni00B5" unicode="&#xb5;" horiz-adv-x="375" 
d="M39 -129v624h94v-398q6 -18 20.5 -28t36.5 -10q16 0 27.5 5t18 19t6.5 41v371h94v-371q0 -44 -9 -73.5t-33 -43.5t-70 -14q-31 0 -58.5 16.5t-38.5 47.5l-8 -186h-80z" />
    <glyph glyph-name="paragraph" unicode="&#xb6;" horiz-adv-x="600" 
d="M194 -60v268q-49 0 -82 22.5t-50 64t-17 100.5q0 56 15 93t41.5 58t60 30t69.5 9h141v-645h-43v580h-57v-580h-78z" />
    <glyph glyph-name="periodcentered" unicode="&#xb7;" horiz-adv-x="203" 
d="M101 231q-21 0 -36 14.5t-15 34.5q0 21 15 35t36 14t36.5 -14t15.5 -35q0 -20 -15.5 -34.5t-36.5 -14.5z" />
    <glyph glyph-name="cedilla" unicode="&#xb8;" horiz-adv-x="183" 
d="M55 -155q-18 0 -33 6.5t-22 10.5l12 31q6 -5 18 -9t21 -4q17 0 26 8t9 21q0 11 -7.5 17t-18.5 6q-7 0 -12.5 -2.5t-9.5 -5.5l-28 15l32 61h37l-27 -52l-6 3q7 4 16 6.5t20 2.5q27 0 42 -16.5t15 -34.5q0 -27 -22 -45.5t-62 -18.5z" />
    <glyph glyph-name="uni00B9" unicode="&#xb9;" horiz-adv-x="166" 
d="M70 236v267l-53 -8v35q31 8 48 23.5t30 37.5h34v-355h-59z" />
    <glyph glyph-name="ordmasculine" unicode="&#xba;" horiz-adv-x="222" 
d="M111 266q-29 0 -49 7.5t-30 28t-10 58.5v131q0 45 21.5 63.5t67.5 18.5t67.5 -18t21.5 -64v-130q0 -39 -10 -59.5t-29.5 -28t-49.5 -7.5zM111 300q18 0 25.5 9.5t7.5 33.5v153q0 23 -7.5 33t-25.5 10q-17 0 -25 -9.5t-8 -33.5v-153q0 -24 8 -33.5t25 -9.5z" />
    <glyph glyph-name="guillemotright" unicode="&#xbb;" horiz-adv-x="505" 
d="M251 106l127 184l-132 192h86l133 -192l-128 -184h-86zM44 106l128 184l-133 192h87l133 -192l-129 -184h-86z" />
    <glyph glyph-name="onequarter" unicode="&#xbc;" horiz-adv-x="546" 
d="M70 236v267l-53 -8v35q31 8 48 23.5t30 37.5h34v-355h-59zM60 0l320 588h70l-321 -588h-69zM428 0v70h-134v41l142 244h53v-243h38v-42h-38v-70h-61zM350 112h78v139z" />
    <glyph glyph-name="onehalf" unicode="&#xbd;" horiz-adv-x="586" 
d="M70 236v267l-53 -8v35q31 8 48 23.5t30 37.5h34v-355h-59zM60 0l320 588h70l-321 -588h-69zM357 0v53q0 47 13.5 71.5t58.5 45.5q38 19 50.5 38t12.5 51q0 26 -8 40.5t-30 14.5q-18 0 -28.5 -12t-10.5 -40v-39h-60v29q0 58 24.5 81.5t76.5 23.5q41 0 62.5 -11.5
t29.5 -32.5t8 -47q0 -36 -10 -58.5t-26.5 -37.5t-39.5 -28q-36 -20 -49 -32.5t-16 -27.5q-3 -8 -3 -16.5v-15.5h144v-50h-199z" />
    <glyph glyph-name="threequarters" unicode="&#xbe;" horiz-adv-x="592" 
d="M123 236q-56 0 -81 24t-25 64v39h63v-23q0 -27 10 -42.5t32 -15.5q21 -1 32 13t11 34v35q0 20 -15.5 30t-45.5 10h-33v36h33q32 0 46 12t14 32v23q0 18 -9.5 31.5t-31.5 13.5q-24 0 -33 -16t-9 -40v-15h-63v31q0 41 26 63t79 22q60 0 82.5 -21.5t22.5 -57.5v-26
q0 -30 -16.5 -48.5t-45.5 -23.5q31 -2 47.5 -21.5t16.5 -49.5v-25q0 -41 -23 -64.5t-84 -23.5zM122 0l320 588h70l-321 -588h-69zM468 2v70h-134v41l142 244h53v-243h38v-42h-38v-70h-61zM390 114h78v139z" />
    <glyph glyph-name="questiondown" unicode="&#xbf;" horiz-adv-x="392" 
d="M272 333v-123q-16 0 -31 -2.5t-29 -6.5q-18 -4 -35.5 -16t-29 -32t-11.5 -51v-49q0 -39 15 -63.5t49 -24.5t47 22.5t13 59.5v51h96v-61q0 -142 -157 -142q-59 0 -95 16t-51.5 50.5t-15.5 89.5v37q1 45 16.5 77.5t41 52t55.5 24.5q9 1 19 1.5t20 0.5v89h83zM232 497
q22 0 36.5 -14.5t14.5 -34.5q0 -21 -14.5 -35.5t-36.5 -14.5q-21 0 -36.5 14.5t-15.5 35.5q0 20 15.5 34.5t36.5 14.5z" />
    <glyph glyph-name="Agrave" unicode="&#xc0;" 
d="M11 0l115 591h134l113 -591h-106l-24 120h-108l-22 -120h-102zM137 169h105l-52 329zM185 634l-107 87h91l76 -87h-60z" />
    <glyph glyph-name="Aacute" unicode="&#xc1;" 
d="M11 0l115 591h134l113 -591h-106l-24 120h-108l-22 -120h-102zM137 169h105l-52 329zM137 634l79 90h89l-113 -90h-55z" />
    <glyph glyph-name="Acircumflex" unicode="&#xc2;" 
d="M11 0l115 591h134l113 -591h-106l-24 120h-108l-22 -120h-102zM137 169h105l-52 329zM71 630l93 96h56l94 -95h-65l-56 47l-55 -48h-67z" />
    <glyph glyph-name="Atilde" unicode="&#xc3;" 
d="M11 0l115 591h134l113 -591h-106l-24 120h-108l-22 -120h-102zM137 169h105l-52 329zM235 638q-15 0 -26.5 5t-25.5 14q-9 6 -20 11.5t-23 5.5t-20 -9t-10 -26h-30q1 35 17.5 57.5t43.5 22.5q15 0 28 -5.5t25 -13.5q11 -6 21 -11t20 -5q15 0 22 9t10 24h33
q-1 -25 -10.5 -43t-24 -27t-30.5 -9z" />
    <glyph glyph-name="Adieresis" unicode="&#xc4;" 
d="M11 0l115 591h134l113 -591h-106l-24 120h-108l-22 -120h-102zM137 169h105l-52 329zM137 636q-18 0 -30 12t-12 29t12 28.5t30 11.5t29.5 -11.5t11.5 -28.5t-11.5 -29t-29.5 -12zM248 636q-18 0 -30 12t-12 29t12 28.5t30 11.5t30 -11.5t12 -28.5t-12 -29t-30 -12z" />
    <glyph glyph-name="Aring" unicode="&#xc5;" 
d="M11 0l115 591h134l113 -591h-106l-24 120h-108l-22 -120h-102zM137 169h105l-52 329zM192 587q-36 0 -59.5 23t-23.5 56t23.5 56t59.5 23q37 0 60.5 -23.5t23.5 -56.5q0 -32 -25 -55t-59 -23zM192 627q19 0 30.5 11t11.5 27q0 19 -11.5 30t-30.5 11t-30 -11t-11 -30
q0 -16 11 -27t30 -11z" />
    <glyph glyph-name="AE" unicode="&#xc6;" horiz-adv-x="542" 
d="M4 0l187 591h318v-68h-182l3 -179h160v-75h-159l2 -203h187v-66h-291v120h-86l-37 -120h-102zM151 169h84l8 311l1 18l-3 -17z" />
    <glyph glyph-name="Ccedilla" unicode="&#xc7;" horiz-adv-x="398" 
d="M202 -12q-46 0 -82.5 11t-57 45.5t-20.5 103.5v319q0 54 20.5 82.5t57 39.5t83.5 11q48 0 83 -11.5t55 -40t20 -81.5v-116h-96v119q0 31 -8 45.5t-22 19.5t-32 5t-32 -5t-22 -19.5t-8 -45.5v-355q0 -30 8 -45t22 -20t32 -5q19 0 32.5 5t21.5 20t8 45v106h96v-72
q0 -71 -20 -105t-55 -45t-84 -11zM195 -155q-18 0 -33 6.5t-22 10.5l12 31q6 -5 18 -9t21 -4q17 0 26 8t9 21q0 11 -7.5 17t-18.5 6q-7 0 -12.5 -2.5t-9.5 -5.5l-28 15l32 61h37l-27 -52l-6 3q7 4 16 6.5t20 2.5q27 0 42 -16.5t15 -34.5q0 -27 -22 -45.5t-62 -18.5z" />
    <glyph glyph-name="Egrave" unicode="&#xc8;" horiz-adv-x="337" 
d="M50 0v591h266v-68h-166v-179h137v-75h-137v-203h166v-66h-266zM175 634l-107 87h91l76 -87h-60z" />
    <glyph glyph-name="Eacute" unicode="&#xc9;" horiz-adv-x="337" 
d="M50 0v591h266v-68h-166v-179h137v-75h-137v-203h166v-66h-266zM127 634l79 90h89l-113 -90h-55z" />
    <glyph glyph-name="Ecircumflex" unicode="&#xca;" horiz-adv-x="337" 
d="M50 0v591h266v-68h-166v-179h137v-75h-137v-203h166v-66h-266zM61 630l93 96h56l94 -95h-65l-56 47l-55 -48h-67z" />
    <glyph glyph-name="Edieresis" unicode="&#xcb;" horiz-adv-x="337" 
d="M50 0v591h266v-68h-166v-179h137v-75h-137v-203h166v-66h-266zM127 636q-18 0 -30 12t-12 29t12 28.5t30 11.5t29.5 -11.5t11.5 -28.5t-11.5 -29t-29.5 -12zM238 636q-18 0 -30 12t-12 29t12 28.5t30 11.5t30 -11.5t12 -28.5t-12 -29t-30 -12z" />
    <glyph glyph-name="Igrave" unicode="&#xcc;" horiz-adv-x="195" 
d="M50 0v591h95v-591h-95zM91 634l-107 87h91l76 -87h-60z" />
    <glyph glyph-name="Iacute" unicode="&#xcd;" horiz-adv-x="195" 
d="M50 0v591h95v-591h-95zM43 634l79 90h89l-113 -90h-55z" />
    <glyph glyph-name="Icircumflex" unicode="&#xce;" horiz-adv-x="195" 
d="M50 0v591h95v-591h-95zM-24 630l93 96h56l94 -95h-65l-56 47l-55 -48h-67z" />
    <glyph glyph-name="Idieresis" unicode="&#xcf;" horiz-adv-x="195" 
d="M50 0v591h95v-591h-95zM42 636q-18 0 -30 12t-12 29t12 28.5t30 11.5t29.5 -11.5t11.5 -28.5t-11.5 -29t-29.5 -12zM153 636q-18 0 -30 12t-12 29t12 28.5t30 11.5t30 -11.5t12 -28.5t-12 -29t-30 -12z" />
    <glyph glyph-name="Eth" unicode="&#xd0;" horiz-adv-x="438" 
d="M66 0v591h207q41 0 68 -12t41 -37t14 -65v-350q0 -49 -16.5 -77t-47 -39t-72.5 -11h-194zM15 261v57h197v-57h-197zM165 51h74q30 0 46 14.5t16 54.5v346q0 40 -16 55t-46 15h-74v-485z" />
    <glyph glyph-name="Ntilde" unicode="&#xd1;" horiz-adv-x="415" 
d="M50 0v591h83l147 -398v398h85v-591h-84l-146 377v-377h-85zM253 638q-15 0 -26.5 5t-25.5 14q-9 6 -20 11.5t-23 5.5t-20 -9t-10 -26h-30q1 35 17.5 57.5t43.5 22.5q15 0 28 -5.5t25 -13.5q11 -6 21 -11t20 -5q15 0 22 9t10 24h33q-1 -25 -10.5 -43t-24 -27t-30.5 -9z
" />
    <glyph glyph-name="Ograve" unicode="&#xd2;" horiz-adv-x="403" 
d="M200 -12q-47 0 -82.5 11t-55.5 45.5t-20 103.5v319q0 54 20 82.5t56 39.5t83 11t82.5 -11.5t56.5 -40t21 -81.5v-318q0 -71 -21 -105t-57 -45t-83 -11zM200 45q19 0 34 5.5t23 20.5t8 44v355q0 28 -8 43.5t-23 21t-34 5.5t-33.5 -5.5t-22.5 -21t-8 -43.5v-355
q0 -29 8 -44t22.5 -20.5t33.5 -5.5zM195 634l-107 87h91l76 -87h-60z" />
    <glyph glyph-name="Oacute" unicode="&#xd3;" horiz-adv-x="403" 
d="M200 -12q-47 0 -82.5 11t-55.5 45.5t-20 103.5v319q0 54 20 82.5t56 39.5t83 11t82.5 -11.5t56.5 -40t21 -81.5v-318q0 -71 -21 -105t-57 -45t-83 -11zM200 45q19 0 34 5.5t23 20.5t8 44v355q0 28 -8 43.5t-23 21t-34 5.5t-33.5 -5.5t-22.5 -21t-8 -43.5v-355
q0 -29 8 -44t22.5 -20.5t33.5 -5.5zM147 634l79 90h89l-113 -90h-55z" />
    <glyph glyph-name="Ocircumflex" unicode="&#xd4;" horiz-adv-x="403" 
d="M200 -12q-47 0 -82.5 11t-55.5 45.5t-20 103.5v319q0 54 20 82.5t56 39.5t83 11t82.5 -11.5t56.5 -40t21 -81.5v-318q0 -71 -21 -105t-57 -45t-83 -11zM200 45q19 0 34 5.5t23 20.5t8 44v355q0 28 -8 43.5t-23 21t-34 5.5t-33.5 -5.5t-22.5 -21t-8 -43.5v-355
q0 -29 8 -44t22.5 -20.5t33.5 -5.5zM80 630l93 96h56l94 -95h-65l-56 47l-55 -48h-67z" />
    <glyph glyph-name="Otilde" unicode="&#xd5;" horiz-adv-x="403" 
d="M200 -12q-47 0 -82.5 11t-55.5 45.5t-20 103.5v319q0 54 20 82.5t56 39.5t83 11t82.5 -11.5t56.5 -40t21 -81.5v-318q0 -71 -21 -105t-57 -45t-83 -11zM200 45q19 0 34 5.5t23 20.5t8 44v355q0 28 -8 43.5t-23 21t-34 5.5t-33.5 -5.5t-22.5 -21t-8 -43.5v-355
q0 -29 8 -44t22.5 -20.5t33.5 -5.5zM244 638q-15 0 -26.5 5t-25.5 14q-9 6 -20 11.5t-23 5.5t-20 -9t-10 -26h-30q1 35 17.5 57.5t43.5 22.5q15 0 28 -5.5t25 -13.5q11 -6 21 -11t20 -5q15 0 22 9t10 24h33q-1 -25 -10.5 -43t-24 -27t-30.5 -9z" />
    <glyph glyph-name="Odieresis" unicode="&#xd6;" horiz-adv-x="403" 
d="M200 -12q-47 0 -82.5 11t-55.5 45.5t-20 103.5v319q0 54 20 82.5t56 39.5t83 11t82.5 -11.5t56.5 -40t21 -81.5v-318q0 -71 -21 -105t-57 -45t-83 -11zM200 45q19 0 34 5.5t23 20.5t8 44v355q0 28 -8 43.5t-23 21t-34 5.5t-33.5 -5.5t-22.5 -21t-8 -43.5v-355
q0 -29 8 -44t22.5 -20.5t33.5 -5.5zM146 636q-18 0 -30 12t-12 29t12 28.5t30 11.5t29.5 -11.5t11.5 -28.5t-11.5 -29t-29.5 -12zM257 636q-18 0 -30 12t-12 29t12 28.5t30 11.5t30 -11.5t12 -28.5t-12 -29t-30 -12z" />
    <glyph glyph-name="multiply" unicode="&#xd7;" horiz-adv-x="379" 
d="M293 111l-104 103l-99 -98l-48 47l100 99l-103 102l48 48l102 -103l100 101l47 -48l-99 -100l103 -104z" />
    <glyph glyph-name="Oslash" unicode="&#xd8;" horiz-adv-x="419" 
d="M19 -35l333 660h46l-333 -660h-46zM205 -12q-47 0 -83 11t-56.5 45.5t-20.5 103.5v319q0 54 20.5 82.5t57 39.5t83.5 11q48 0 83 -11.5t54.5 -40t19.5 -81.5v-318q0 -71 -19.5 -105t-54.5 -45t-84 -11zM206 45q18 0 32 5t22 20t8 45v355q0 30 -8 45t-22 20t-32 5
q-19 0 -33 -5t-21.5 -20t-7.5 -45v-355q0 -30 7.5 -45t21.5 -20t33 -5z" />
    <glyph glyph-name="Ugrave" unicode="&#xd9;" horiz-adv-x="410" 
d="M205 -12q-34 0 -63 5t-50 20t-33 45t-12 81v452h96v-477q0 -27 8.5 -41.5t22.5 -19.5t31 -5t31 5t22.5 19.5t8.5 41.5v477h95v-451q0 -51 -11.5 -81.5t-32.5 -45.5t-50 -20t-63 -5zM198 634l-107 87h91l76 -87h-60z" />
    <glyph glyph-name="Uacute" unicode="&#xda;" horiz-adv-x="410" 
d="M205 -12q-34 0 -63 5t-50 20t-33 45t-12 81v452h96v-477q0 -27 8.5 -41.5t22.5 -19.5t31 -5t31 5t22.5 19.5t8.5 41.5v477h95v-451q0 -51 -11.5 -81.5t-32.5 -45.5t-50 -20t-63 -5zM149 634l79 90h89l-113 -90h-55z" />
    <glyph glyph-name="Ucircumflex" unicode="&#xdb;" horiz-adv-x="410" 
d="M205 -12q-34 0 -63 5t-50 20t-33 45t-12 81v452h96v-477q0 -27 8.5 -41.5t22.5 -19.5t31 -5t31 5t22.5 19.5t8.5 41.5v477h95v-451q0 -51 -11.5 -81.5t-32.5 -45.5t-50 -20t-63 -5zM83 630l93 96h56l94 -95h-65l-56 47l-55 -48h-67z" />
    <glyph glyph-name="Udieresis" unicode="&#xdc;" horiz-adv-x="410" 
d="M205 -12q-34 0 -63 5t-50 20t-33 45t-12 81v452h96v-477q0 -27 8.5 -41.5t22.5 -19.5t31 -5t31 5t22.5 19.5t8.5 41.5v477h95v-451q0 -51 -11.5 -81.5t-32.5 -45.5t-50 -20t-63 -5zM149 636q-18 0 -30 12t-12 29t12 28.5t30 11.5t29.5 -11.5t11.5 -28.5t-11.5 -29
t-29.5 -12zM260 636q-18 0 -30 12t-12 29t12 28.5t30 11.5t30 -11.5t12 -28.5t-12 -29t-30 -12z" />
    <glyph glyph-name="Yacute" unicode="&#xdd;" horiz-adv-x="345" 
d="M122 0v254l-110 337h95l62 -202l5 -31l6 31l65 202h89l-116 -342v-249h-96zM121 634l79 90h89l-113 -90h-55z" />
    <glyph glyph-name="Thorn" unicode="&#xde;" horiz-adv-x="389" 
d="M36 0v591h101v-106h99q56 0 86.5 -25.5t30.5 -74.5v-105q0 -38 -10 -70t-36.5 -52.5t-75.5 -20.5h-95v-137h-100zM136 191h61q31 0 46 23.5t15 76.5v53q0 48 -13 68t-36 20h-73v-241z" />
    <glyph glyph-name="germandbls" unicode="&#xdf;" horiz-adv-x="428" 
d="M15 -147q-11 0 -29.5 1.5t-26.5 2.5v55q4 -1 7 -1t7 -1q5 -1 12.5 -1.5t17.5 -0.5q37 0 49 21t12 50v450h-38v66h38v27q0 38 11.5 62t46.5 35.5t103 11.5q79 0 120.5 -21.5t41.5 -76.5v-95q0 -42 -21 -68t-48 -28v-4q20 -2 39.5 -13t32.5 -31t13 -50v-123
q0 -52 -19.5 -78t-54 -34.5t-81.5 -8.5h-60v50h48q23 0 37 8t20.5 31t6.5 69v81q0 25 -8 41t-24 23t-42 7h-30v52h46q33 0 43 21t10 57v66q0 41 -14 59.5t-55 18.5q-30 0 -44.5 -10t-19 -26.5t-4.5 -35.5v-518q0 -42 -12 -70t-32.5 -43t-46 -21.5t-52.5 -6.5z" />
    <glyph glyph-name="agrave" unicode="&#xe0;" horiz-adv-x="366" 
d="M132 -8q-25 0 -47.5 7t-38 29.5t-15.5 69.5v59q0 49 28.5 78.5t85.5 52.5q33 14 52.5 25t28.5 26t9 41v25q0 19 -7.5 29t-19 14.5t-26.5 4.5q-33 0 -43.5 -20t-10.5 -64v-42h-85v51q0 37 10 65.5t40 45t89 16.5q61 0 92.5 -12t43.5 -36.5t12 -62.5v-394h-94v57
q-10 -31 -39.5 -48t-64.5 -17zM171 55q34 0 48.5 24.5t14.5 68.5v139q-7 -12 -25 -22t-35 -21q-25 -15 -38 -31.5t-13 -45.5v-47q0 -27 6.5 -41.5t18 -19t23.5 -4.5zM178 547l-91 97h87l58 -97h-54z" />
    <glyph glyph-name="aacute" unicode="&#xe1;" horiz-adv-x="366" 
d="M132 -8q-25 0 -47.5 7t-38 29.5t-15.5 69.5v59q0 49 28.5 78.5t85.5 52.5q33 14 52.5 25t28.5 26t9 41v25q0 19 -7.5 29t-19 14.5t-26.5 4.5q-33 0 -43.5 -20t-10.5 -64v-42h-85v51q0 37 10 65.5t40 45t89 16.5q61 0 92.5 -12t43.5 -36.5t12 -62.5v-394h-94v57
q-10 -31 -39.5 -48t-64.5 -17zM171 55q34 0 48.5 24.5t14.5 68.5v139q-7 -12 -25 -22t-35 -21q-25 -15 -38 -31.5t-13 -45.5v-47q0 -27 6.5 -41.5t18 -19t23.5 -4.5zM148 547l57 97h87l-90 -97h-54z" />
    <glyph glyph-name="acircumflex" unicode="&#xe2;" horiz-adv-x="366" 
d="M132 -8q-25 0 -47.5 7t-38 29.5t-15.5 69.5v59q0 49 28.5 78.5t85.5 52.5q33 14 52.5 25t28.5 26t9 41v25q0 19 -7.5 29t-19 14.5t-26.5 4.5q-33 0 -43.5 -20t-10.5 -64v-42h-85v51q0 37 10 65.5t40 45t89 16.5q61 0 92.5 -12t43.5 -36.5t12 -62.5v-394h-94v57
q-10 -31 -39.5 -48t-64.5 -17zM171 55q34 0 48.5 24.5t14.5 68.5v139q-7 -12 -25 -22t-35 -21q-25 -15 -38 -31.5t-13 -45.5v-47q0 -27 6.5 -41.5t18 -19t23.5 -4.5zM67 546l92 100h56l93 -100h-63l-57 53l-57 -53h-64z" />
    <glyph glyph-name="atilde" unicode="&#xe3;" horiz-adv-x="366" 
d="M132 -8q-25 0 -47.5 7t-38 29.5t-15.5 69.5v59q0 49 28.5 78.5t85.5 52.5q33 14 52.5 25t28.5 26t9 41v25q0 19 -7.5 29t-19 14.5t-26.5 4.5q-33 0 -43.5 -20t-10.5 -64v-42h-85v51q0 37 10 65.5t40 45t89 16.5q61 0 92.5 -12t43.5 -36.5t12 -62.5v-394h-94v57
q-10 -31 -39.5 -48t-64.5 -17zM171 55q34 0 48.5 24.5t14.5 68.5v139q-7 -12 -25 -22t-35 -21q-25 -15 -38 -31.5t-13 -45.5v-47q0 -27 6.5 -41.5t18 -19t23.5 -4.5zM233 552q-15 0 -26.5 5t-25.5 14q-9 6 -20 11.5t-23 5.5t-20 -9t-10 -26h-30q1 35 17.5 57.5t43.5 22.5
q15 0 28 -5.5t25 -13.5q11 -6 21 -11t20 -5q15 0 22 9t10 24h33q-1 -25 -10.5 -43t-24 -27t-30.5 -9z" />
    <glyph glyph-name="adieresis" unicode="&#xe4;" horiz-adv-x="366" 
d="M132 -8q-25 0 -47.5 7t-38 29.5t-15.5 69.5v59q0 49 28.5 78.5t85.5 52.5q33 14 52.5 25t28.5 26t9 41v25q0 19 -7.5 29t-19 14.5t-26.5 4.5q-33 0 -43.5 -20t-10.5 -64v-42h-85v51q0 37 10 65.5t40 45t89 16.5q61 0 92.5 -12t43.5 -36.5t12 -62.5v-394h-94v57
q-10 -31 -39.5 -48t-64.5 -17zM171 55q34 0 48.5 24.5t14.5 68.5v139q-7 -12 -25 -22t-35 -21q-25 -15 -38 -31.5t-13 -45.5v-47q0 -27 6.5 -41.5t18 -19t23.5 -4.5zM132 551q-18 0 -30 12t-12 29t12 28.5t30 11.5t29.5 -11.5t11.5 -28.5t-11.5 -29t-29.5 -12zM243 551
q-18 0 -30 12t-12 29t12 28.5t30 11.5t30 -11.5t12 -28.5t-12 -29t-30 -12z" />
    <glyph glyph-name="aring" unicode="&#xe5;" horiz-adv-x="366" 
d="M132 -8q-25 0 -47.5 7t-38 29.5t-15.5 69.5v59q0 49 28.5 78.5t85.5 52.5q33 14 52.5 25t28.5 26t9 41v25q0 19 -7.5 29t-19 14.5t-26.5 4.5q-33 0 -43.5 -20t-10.5 -64v-42h-85v51q0 37 10 65.5t40 45t89 16.5q61 0 92.5 -12t43.5 -36.5t12 -62.5v-394h-94v57
q-10 -31 -39.5 -48t-64.5 -17zM171 55q34 0 48.5 24.5t14.5 68.5v139q-7 -12 -25 -22t-35 -21q-25 -15 -38 -31.5t-13 -45.5v-47q0 -27 6.5 -41.5t18 -19t23.5 -4.5zM187 542q-36 0 -59.5 23t-23.5 56t23.5 56t59.5 23q37 0 60.5 -23.5t23.5 -56.5q0 -32 -25 -55t-59 -23z
M187 582q19 0 30.5 11t11.5 27q0 19 -11.5 30t-30.5 11t-30 -11t-11 -30q0 -16 11 -27t30 -11z" />
    <glyph glyph-name="ae" unicode="&#xe6;" horiz-adv-x="561" 
d="M132 -5q-13 0 -30 2t-33 11.5t-27 31t-11 60.5v60q0 49 30.5 77t78.5 48q33 15 54 26.5t31 26t10 37.5v30q0 19 -7.5 29t-19 14.5t-26.5 4.5q-33 0 -43.5 -20t-10.5 -64v-42h-85v51q0 37 10 65.5t40 45t89 16.5q53 0 81 -14t38.5 -39t10.5 -58v-367l-57 55
q-16 -49 -50 -68t-73 -19zM171 57q34 0 48.5 23.5t14.5 67.5v139q-7 -13 -25.5 -23t-36.5 -21q-24 -16 -36.5 -32t-12.5 -43v-46q0 -27 6.5 -41.5t18 -19t23.5 -4.5zM384 -2q-34 0 -60 4.5t-43 19t-25.5 44t-8.5 79.5v234q0 60 33.5 92.5t103.5 32.5q76 0 112 -27t36 -98
v-132h-202v-139q0 -25 4.5 -39t16.5 -19t33 -5t33 5.5t17 20.5t5 40v69h93v-31q0 -50 -9 -80.5t-27.5 -45.5t-46 -20t-65.5 -5zM330 291h109v98q0 34 -11.5 49t-43.5 15q-31 0 -42.5 -15t-11.5 -49v-98z" />
    <glyph glyph-name="ccedilla" unicode="&#xe7;" horiz-adv-x="358" 
d="M185 -8q-51 0 -84.5 11t-50 44t-16.5 98v228q0 75 36 103t112 28t112 -27t36 -98v-69h-94v73q0 35 -11 50t-43 15q-31 0 -42.5 -15t-11.5 -50v-267q0 -37 11.5 -52t44.5 -15q30 0 41 14.5t11 52.5v78h94v-49q0 -64 -16.5 -97.5t-49 -44.5t-79.5 -11zM175 -155
q-18 0 -33 6.5t-22 10.5l12 31q6 -5 18 -9t21 -4q17 0 26 8t9 21q0 11 -7.5 17t-18.5 6q-7 0 -12.5 -2.5t-9.5 -5.5l-28 15l32 61h37l-27 -52l-6 3q7 4 16 6.5t20 2.5q27 0 42 -16.5t15 -34.5q0 -27 -22 -45.5t-62 -18.5z" />
    <glyph glyph-name="egrave" unicode="&#xe8;" horiz-adv-x="358" 
d="M185 -8q-51 0 -84.5 11.5t-50 44.5t-16.5 99v232q0 72 36 98.5t112 26.5t112 -26.5t36 -98.5v-132h-202v-137q0 -37 11.5 -52t44.5 -15q30 0 41 14.5t11 52.5v73h94v-35q0 -65 -16.5 -99t-48.5 -45.5t-80 -11.5zM128 291h108v92q0 34 -11 49t-43 15q-31 0 -42.5 -15
t-11.5 -49v-92zM170 547l-91 97h87l58 -97h-54z" />
    <glyph glyph-name="eacute" unicode="&#xe9;" horiz-adv-x="358" 
d="M185 -8q-51 0 -84.5 11.5t-50 44.5t-16.5 99v232q0 72 36 98.5t112 26.5t112 -26.5t36 -98.5v-132h-202v-137q0 -37 11.5 -52t44.5 -15q30 0 41 14.5t11 52.5v73h94v-35q0 -65 -16.5 -99t-48.5 -45.5t-80 -11.5zM128 291h108v92q0 34 -11 49t-43 15q-31 0 -42.5 -15
t-11.5 -49v-92zM140 547l57 97h87l-90 -97h-54z" />
    <glyph glyph-name="ecircumflex" unicode="&#xea;" horiz-adv-x="358" 
d="M185 -8q-51 0 -84.5 11.5t-50 44.5t-16.5 99v232q0 72 36 98.5t112 26.5t112 -26.5t36 -98.5v-132h-202v-137q0 -37 11.5 -52t44.5 -15q30 0 41 14.5t11 52.5v73h94v-35q0 -65 -16.5 -99t-48.5 -45.5t-80 -11.5zM128 291h108v92q0 34 -11 49t-43 15q-31 0 -42.5 -15
t-11.5 -49v-92zM59 546l92 100h56l93 -100h-63l-57 53l-57 -53h-64z" />
    <glyph glyph-name="edieresis" unicode="&#xeb;" horiz-adv-x="358" 
d="M185 -8q-51 0 -84.5 11.5t-50 44.5t-16.5 99v232q0 72 36 98.5t112 26.5t112 -26.5t36 -98.5v-132h-202v-137q0 -37 11.5 -52t44.5 -15q30 0 41 14.5t11 52.5v73h94v-35q0 -65 -16.5 -99t-48.5 -45.5t-80 -11.5zM128 291h108v92q0 34 -11 49t-43 15q-31 0 -42.5 -15
t-11.5 -49v-92zM124 551q-18 0 -30 12t-12 29t12 28.5t30 11.5t29.5 -11.5t11.5 -28.5t-11.5 -29t-29.5 -12zM235 551q-18 0 -30 12t-12 29t12 28.5t30 11.5t30 -11.5t12 -28.5t-12 -29t-30 -12z" />
    <glyph glyph-name="igrave" unicode="&#xec;" horiz-adv-x="180" 
d="M43 0v495h94v-495h-94zM81 547l-91 97h87l58 -97h-54z" />
    <glyph glyph-name="iacute" unicode="&#xed;" horiz-adv-x="180" 
d="M43 0v495h94v-495h-94zM50 547l57 97h87l-90 -97h-54z" />
    <glyph glyph-name="icircumflex" unicode="&#xee;" horiz-adv-x="180" 
d="M43 0v495h94v-495h-94zM-30 546l92 100h56l93 -100h-63l-57 53l-57 -53h-64z" />
    <glyph glyph-name="idieresis" unicode="&#xef;" horiz-adv-x="180" 
d="M43 0v495h94v-495h-94zM35 551q-18 0 -30 12t-12 29t12 28.5t30 11.5t29.5 -11.5t11.5 -28.5t-11.5 -29t-29.5 -12zM146 551q-18 0 -30 12t-12 29t12 28.5t30 11.5t30 -11.5t12 -28.5t-12 -29t-30 -12z" />
    <glyph glyph-name="eth" unicode="&#xf0;" horiz-adv-x="367" 
d="M181 -8q-45 0 -78 11t-51 43t-18 95v219q0 71 34 99t101 28q19 0 37 -4.5t28 -16.5v19q0 42 -9.5 67t-28.5 36.5t-47 11.5q-25 0 -46.5 -3.5t-42.5 -7.5v60q17 4 42.5 8.5t61.5 4.5q56 0 89 -15t49.5 -49t22 -87t5.5 -129v-219q0 -67 -16.5 -104t-49.5 -52t-83 -15z
M181 44q29 0 42 18.5t13 62.5v264q0 10 -5.5 20.5t-18 18t-35.5 7.5q-28 0 -38.5 -14.5t-10.5 -51.5v-266q0 -31 13 -45t40 -14zM138 515l-23 29l178 147l24 -28z" />
    <glyph glyph-name="ntilde" unicode="&#xf1;" horiz-adv-x="377" 
d="M43 0v495h79l9 -56q9 30 36.5 48t59.5 18q49 0 73.5 -17.5t32.5 -47t8 -67.5v-373h-94v366q0 14 -1 26.5t-6 22.5t-16 16t-32 6q-17 0 -28.5 -6t-17.5 -14.5t-9 -16.5v-400h-94zM234 552q-15 0 -26.5 5t-25.5 14q-9 6 -20 11.5t-23 5.5t-20 -9t-10 -26h-30
q1 35 17.5 57.5t43.5 22.5q15 0 28 -5.5t25 -13.5q11 -6 21 -11t20 -5q15 0 22 9t10 24h33q-1 -25 -10.5 -43t-24 -27t-30.5 -9z" />
    <glyph glyph-name="ograve" unicode="&#xf2;" horiz-adv-x="364" 
d="M183 -8q-49 0 -82.5 12.5t-50 46.5t-16.5 98v218q0 75 36 106t113 31q76 0 112 -30.5t36 -106.5v-218q0 -64 -16.5 -98t-49.5 -46.5t-82 -12.5zM183 49q29 0 41.5 15.5t12.5 55.5v255q0 39 -12 55t-42 16q-29 0 -42 -15.5t-13 -55.5v-255q0 -40 13 -55.5t42 -15.5z
M173 547l-91 97h87l58 -97h-54z" />
    <glyph glyph-name="oacute" unicode="&#xf3;" horiz-adv-x="364" 
d="M183 -8q-49 0 -82.5 12.5t-50 46.5t-16.5 98v218q0 75 36 106t113 31q76 0 112 -30.5t36 -106.5v-218q0 -64 -16.5 -98t-49.5 -46.5t-82 -12.5zM183 49q29 0 41.5 15.5t12.5 55.5v255q0 39 -12 55t-42 16q-29 0 -42 -15.5t-13 -55.5v-255q0 -40 13 -55.5t42 -15.5z
M142 547l57 97h87l-90 -97h-54z" />
    <glyph glyph-name="ocircumflex" unicode="&#xf4;" horiz-adv-x="364" 
d="M183 -8q-49 0 -82.5 12.5t-50 46.5t-16.5 98v218q0 75 36 106t113 31q76 0 112 -30.5t36 -106.5v-218q0 -64 -16.5 -98t-49.5 -46.5t-82 -12.5zM183 49q29 0 41.5 15.5t12.5 55.5v255q0 39 -12 55t-42 16q-29 0 -42 -15.5t-13 -55.5v-255q0 -40 13 -55.5t42 -15.5z
M61 546l92 100h56l93 -100h-63l-57 53l-57 -53h-64z" />
    <glyph glyph-name="otilde" unicode="&#xf5;" horiz-adv-x="364" 
d="M183 -8q-49 0 -82.5 12.5t-50 46.5t-16.5 98v218q0 75 36 106t113 31q76 0 112 -30.5t36 -106.5v-218q0 -64 -16.5 -98t-49.5 -46.5t-82 -12.5zM183 49q29 0 41.5 15.5t12.5 55.5v255q0 39 -12 55t-42 16q-29 0 -42 -15.5t-13 -55.5v-255q0 -40 13 -55.5t42 -15.5z
M227 552q-15 0 -26.5 5t-25.5 14q-9 6 -20 11.5t-23 5.5t-20 -9t-10 -26h-30q1 35 17.5 57.5t43.5 22.5q15 0 28 -5.5t25 -13.5q11 -6 21 -11t20 -5q15 0 22 9t10 24h33q-1 -25 -10.5 -43t-24 -27t-30.5 -9z" />
    <glyph glyph-name="odieresis" unicode="&#xf6;" horiz-adv-x="364" 
d="M183 -8q-49 0 -82.5 12.5t-50 46.5t-16.5 98v218q0 75 36 106t113 31q76 0 112 -30.5t36 -106.5v-218q0 -64 -16.5 -98t-49.5 -46.5t-82 -12.5zM183 49q29 0 41.5 15.5t12.5 55.5v255q0 39 -12 55t-42 16q-29 0 -42 -15.5t-13 -55.5v-255q0 -40 13 -55.5t42 -15.5z
M127 551q-18 0 -30 12t-12 29t12 28.5t30 11.5t29.5 -11.5t11.5 -28.5t-11.5 -29t-29.5 -12zM238 551q-18 0 -30 12t-12 29t12 28.5t30 11.5t30 -11.5t12 -28.5t-12 -29t-30 -12z" />
    <glyph glyph-name="divide" unicode="&#xf7;" horiz-adv-x="380" 
d="M45 257v64h290v-64h-290zM190 78q-21 0 -34.5 12.5t-13.5 32.5t13.5 33t34.5 13q20 0 34 -13t14 -33t-14 -32.5t-34 -12.5zM189 400q-20 0 -34 13.5t-14 32.5q0 20 14 33.5t34 13.5t34.5 -13.5t14.5 -33.5q0 -19 -14.5 -32.5t-34.5 -13.5z" />
    <glyph glyph-name="oslash" unicode="&#xf8;" horiz-adv-x="370" 
d="M23 -36l279 556h38l-279 -556h-38zM183 -8q-55 0 -88 15.5t-47 50t-14 91.5v218q0 44 13.5 74t46.5 46t89 16t88 -16t46 -46t14 -74v-218q0 -57 -14.5 -91.5t-47 -50t-86.5 -15.5zM183 49q24 0 35.5 9.5t15 26t3.5 35.5v255q0 20 -3.5 36t-15 26t-35.5 10q-25 0 -37 -10
t-15 -26t-3 -36v-255q0 -19 3 -35.5t15 -26t37 -9.5z" />
    <glyph glyph-name="ugrave" unicode="&#xf9;" horiz-adv-x="380" 
d="M153 -7q-50 0 -74.5 17t-32 46.5t-7.5 67.5v371h94v-364q0 -18 2.5 -34t14 -26.5t37.5 -10.5q19 0 30 6t17 14.5t8 16.5v398h94v-495h-80l-7 57q-9 -26 -33.5 -45t-62.5 -19zM180 547l-91 97h87l58 -97h-54z" />
    <glyph glyph-name="uacute" unicode="&#xfa;" horiz-adv-x="380" 
d="M153 -7q-50 0 -74.5 17t-32 46.5t-7.5 67.5v371h94v-364q0 -18 2.5 -34t14 -26.5t37.5 -10.5q19 0 30 6t17 14.5t8 16.5v398h94v-495h-80l-7 57q-9 -26 -33.5 -45t-62.5 -19zM150 547l57 97h87l-90 -97h-54z" />
    <glyph glyph-name="ucircumflex" unicode="&#xfb;" horiz-adv-x="380" 
d="M153 -7q-50 0 -74.5 17t-32 46.5t-7.5 67.5v371h94v-364q0 -18 2.5 -34t14 -26.5t37.5 -10.5q19 0 30 6t17 14.5t8 16.5v398h94v-495h-80l-7 57q-9 -26 -33.5 -45t-62.5 -19zM69 546l92 100h56l93 -100h-63l-57 53l-57 -53h-64z" />
    <glyph glyph-name="udieresis" unicode="&#xfc;" horiz-adv-x="380" 
d="M153 -7q-50 0 -74.5 17t-32 46.5t-7.5 67.5v371h94v-364q0 -18 2.5 -34t14 -26.5t37.5 -10.5q19 0 30 6t17 14.5t8 16.5v398h94v-495h-80l-7 57q-9 -26 -33.5 -45t-62.5 -19zM134 551q-18 0 -30 12t-12 29t12 28.5t30 11.5t29.5 -11.5t11.5 -28.5t-11.5 -29t-29.5 -12z
M245 551q-18 0 -30 12t-12 29t12 28.5t30 11.5t30 -11.5t12 -28.5t-12 -29t-30 -12z" />
    <glyph glyph-name="yacute" unicode="&#xfd;" horiz-adv-x="337" 
d="M88 -117q-26 0 -48 4t-35 7v51q6 -1 16.5 -3.5t24.5 -2.5t31 4.5t25 26.5q4 9 8.5 20.5t1.5 26.5l-107 478h97l73 -403v0l71 403h89l-101 -461q-16 -79 -51 -115t-95 -36zM129 547l57 97h87l-90 -97h-54z" />
    <glyph glyph-name="thorn" unicode="&#xfe;" horiz-adv-x="374" 
d="M43 -116v746h94v-175q14 23 33.5 35.5t55.5 12.5q39 0 64.5 -13t37.5 -39t12 -68v-243q0 -50 -11 -82.5t-36 -48t-67 -15.5q-37 0 -58 12.5t-32 34.5l1 -157h-94zM192 47q20 0 31 6t16 16t6 23t1 28v252q0 15 -1 28t-6.5 22.5t-16.5 15t-31 5.5t-32 -9.5t-17 -25
t-5 -34.5v-241q0 -16 1 -31t6.5 -27.5t16.5 -20t31 -7.5z" />
    <glyph glyph-name="ydieresis" unicode="&#xff;" horiz-adv-x="337" 
d="M88 -117q-26 0 -48 4t-35 7v51q6 -1 16.5 -3.5t24.5 -2.5t31 4.5t25 26.5q4 9 8.5 20.5t1.5 26.5l-107 478h97l73 -403v0l71 403h89l-101 -461q-16 -79 -51 -115t-95 -36zM113 551q-18 0 -30 12t-12 29t12 28.5t30 11.5t29.5 -11.5t11.5 -28.5t-11.5 -29t-29.5 -12z
M224 551q-18 0 -30 12t-12 29t12 28.5t30 11.5t30 -11.5t12 -28.5t-12 -29t-30 -12z" />
    <glyph glyph-name="Amacron" unicode="&#x100;" 
d="M11 0l115 591h134l113 -591h-106l-24 120h-108l-22 -120h-102zM137 169h105l-52 329zM93 649v48h198v-48h-198z" />
    <glyph glyph-name="amacron" unicode="&#x101;" horiz-adv-x="366" 
d="M132 -8q-25 0 -47.5 7t-38 29.5t-15.5 69.5v59q0 49 28.5 78.5t85.5 52.5q33 14 52.5 25t28.5 26t9 41v25q0 19 -7.5 29t-19 14.5t-26.5 4.5q-33 0 -43.5 -20t-10.5 -64v-42h-85v51q0 37 10 65.5t40 45t89 16.5q61 0 92.5 -12t43.5 -36.5t12 -62.5v-394h-94v57
q-10 -31 -39.5 -48t-64.5 -17zM171 55q34 0 48.5 24.5t14.5 68.5v139q-7 -12 -25 -22t-35 -21q-25 -15 -38 -31.5t-13 -45.5v-47q0 -27 6.5 -41.5t18 -19t23.5 -4.5zM89 563v48h198v-48h-198z" />
    <glyph glyph-name="Abreve" unicode="&#x102;" 
d="M11 0l115 591h134l113 -591h-106l-24 120h-108l-22 -120h-102zM137 169h105l-52 329zM191 631q-43 0 -66 16t-31.5 38.5t-9.5 40.5h53q2 -25 17.5 -37t36.5 -12q23 0 38.5 11.5t17.5 37.5h53q-1 -23 -12 -45t-34.5 -36t-62.5 -14z" />
    <glyph glyph-name="abreve" unicode="&#x103;" horiz-adv-x="366" 
d="M132 -8q-25 0 -47.5 7t-38 29.5t-15.5 69.5v59q0 49 28.5 78.5t85.5 52.5q33 14 52.5 25t28.5 26t9 41v25q0 19 -7.5 29t-19 14.5t-26.5 4.5q-33 0 -43.5 -20t-10.5 -64v-42h-85v51q0 37 10 65.5t40 45t89 16.5q61 0 92.5 -12t43.5 -36.5t12 -62.5v-394h-94v57
q-10 -31 -39.5 -48t-64.5 -17zM171 55q34 0 48.5 24.5t14.5 68.5v139q-7 -12 -25 -22t-35 -21q-25 -15 -38 -31.5t-13 -45.5v-47q0 -27 6.5 -41.5t18 -19t23.5 -4.5zM187 546q-43 0 -66 16t-31.5 38.5t-9.5 40.5h53q2 -25 17.5 -37t36.5 -12q23 0 38.5 11.5t17.5 37.5h53
q-1 -23 -12 -45t-34.5 -36t-62.5 -14z" />
    <glyph glyph-name="Aogonek" unicode="&#x104;" 
d="M11 0l115 591h134l113 -591h-106l-24 120h-108l-22 -120h-102zM137 169h105l-52 329zM335 -141q-34 0 -55.5 18.5t-21.5 43.5q0 28 21.5 51t52.5 29l41 -1q-27 -10 -40 -29t-13 -37q0 -19 12.5 -29t25.5 -10q8 0 14 2l9 3l12 -26q-6 -4 -19.5 -9.5t-38.5 -5.5z" />
    <glyph glyph-name="aogonek" unicode="&#x105;" horiz-adv-x="366" 
d="M132 -8q-25 0 -47.5 7t-38 29.5t-15.5 69.5v59q0 49 28.5 78.5t85.5 52.5q33 14 52.5 25t28.5 26t9 41v25q0 19 -7.5 29t-19 14.5t-26.5 4.5q-33 0 -43.5 -20t-10.5 -64v-42h-85v51q0 37 10 65.5t40 45t89 16.5q61 0 92.5 -12t43.5 -36.5t12 -62.5v-394h-94v57
q-10 -31 -39.5 -48t-64.5 -17zM171 55q34 0 48.5 24.5t14.5 68.5v139q-7 -12 -25 -22t-35 -21q-25 -15 -38 -31.5t-13 -45.5v-47q0 -27 6.5 -41.5t18 -19t23.5 -4.5zM292 -141q-34 0 -55.5 18.5t-21.5 43.5q0 28 21.5 51t52.5 29l41 -1q-27 -10 -40 -29t-13 -37
q0 -19 12.5 -29t25.5 -10q8 0 14 2l9 3l12 -26q-6 -4 -19.5 -9.5t-38.5 -5.5z" />
    <glyph glyph-name="Cacute" unicode="&#x106;" horiz-adv-x="398" 
d="M202 -12q-46 0 -82.5 11t-57 45.5t-20.5 103.5v319q0 54 20.5 82.5t57 39.5t83.5 11q48 0 83 -11.5t55 -40t20 -81.5v-116h-96v119q0 31 -8 45.5t-22 19.5t-32 5t-32 -5t-22 -19.5t-8 -45.5v-355q0 -30 8 -45t22 -20t32 -5q19 0 32.5 5t21.5 20t8 45v106h96v-72
q0 -71 -20 -105t-55 -45t-84 -11zM144 634l79 90h89l-113 -90h-55z" />
    <glyph glyph-name="cacute" unicode="&#x107;" horiz-adv-x="358" 
d="M185 -8q-51 0 -84.5 11t-50 44t-16.5 98v228q0 75 36 103t112 28t112 -27t36 -98v-69h-94v73q0 35 -11 50t-43 15q-31 0 -42.5 -15t-11.5 -50v-267q0 -37 11.5 -52t44.5 -15q30 0 41 14.5t11 52.5v78h94v-49q0 -64 -16.5 -97.5t-49 -44.5t-79.5 -11zM140 547l57 97h87
l-90 -97h-54z" />
    <glyph glyph-name="Ccircumflex" unicode="&#x108;" horiz-adv-x="398" 
d="M202 -12q-46 0 -82.5 11t-57 45.5t-20.5 103.5v319q0 54 20.5 82.5t57 39.5t83.5 11q48 0 83 -11.5t55 -40t20 -81.5v-116h-96v119q0 31 -8 45.5t-22 19.5t-32 5t-32 -5t-22 -19.5t-8 -45.5v-355q0 -30 8 -45t22 -20t32 -5q19 0 32.5 5t21.5 20t8 45v106h96v-72
q0 -71 -20 -105t-55 -45t-84 -11zM78 630l93 96h56l94 -95h-65l-56 47l-55 -48h-67z" />
    <glyph glyph-name="ccircumflex" unicode="&#x109;" horiz-adv-x="358" 
d="M185 -8q-51 0 -84.5 11t-50 44t-16.5 98v228q0 75 36 103t112 28t112 -27t36 -98v-69h-94v73q0 35 -11 50t-43 15q-31 0 -42.5 -15t-11.5 -50v-267q0 -37 11.5 -52t44.5 -15q30 0 41 14.5t11 52.5v78h94v-49q0 -64 -16.5 -97.5t-49 -44.5t-79.5 -11zM59 546l92 100h56
l93 -100h-63l-57 53l-57 -53h-64z" />
    <glyph glyph-name="Cdotaccent" unicode="&#x10a;" horiz-adv-x="398" 
d="M202 -12q-46 0 -82.5 11t-57 45.5t-20.5 103.5v319q0 54 20.5 82.5t57 39.5t83.5 11q48 0 83 -11.5t55 -40t20 -81.5v-116h-96v119q0 31 -8 45.5t-22 19.5t-32 5t-32 -5t-22 -19.5t-8 -45.5v-355q0 -30 8 -45t22 -20t32 -5q19 0 32.5 5t21.5 20t8 45v106h96v-72
q0 -71 -20 -105t-55 -45t-84 -11zM199 639q-20 0 -33.5 13t-13.5 32t13.5 32t33.5 13q19 0 33.5 -13t14.5 -32t-14.5 -32t-33.5 -13z" />
    <glyph glyph-name="cdotaccent" unicode="&#x10b;" horiz-adv-x="358" 
d="M185 -8q-51 0 -84.5 11t-50 44t-16.5 98v228q0 75 36 103t112 28t112 -27t36 -98v-69h-94v73q0 35 -11 50t-43 15q-31 0 -42.5 -15t-11.5 -50v-267q0 -37 11.5 -52t44.5 -15q30 0 41 14.5t11 52.5v78h94v-49q0 -64 -16.5 -97.5t-49 -44.5t-79.5 -11zM180 553
q-20 0 -33.5 13t-13.5 32t13.5 32t33.5 13q19 0 33.5 -13t14.5 -32t-14.5 -32t-33.5 -13z" />
    <glyph glyph-name="Ccaron" unicode="&#x10c;" horiz-adv-x="398" 
d="M202 -12q-46 0 -82.5 11t-57 45.5t-20.5 103.5v319q0 54 20.5 82.5t57 39.5t83.5 11q48 0 83 -11.5t55 -40t20 -81.5v-116h-96v119q0 31 -8 45.5t-22 19.5t-32 5t-32 -5t-22 -19.5t-8 -45.5v-355q0 -30 8 -45t22 -20t32 -5q19 0 32.5 5t21.5 20t8 45v106h96v-72
q0 -71 -20 -105t-55 -45t-84 -11zM171 630l-91 92h67l53 -44l53 44h66l-92 -92h-56z" />
    <glyph glyph-name="ccaron" unicode="&#x10d;" horiz-adv-x="358" 
d="M185 -8q-51 0 -84.5 11t-50 44t-16.5 98v228q0 75 36 103t112 28t112 -27t36 -98v-69h-94v73q0 35 -11 50t-43 15q-31 0 -42.5 -15t-11.5 -50v-267q0 -37 11.5 -52t44.5 -15q30 0 41 14.5t11 52.5v78h94v-49q0 -64 -16.5 -97.5t-49 -44.5t-79.5 -11zM152 546l-93 100h65
l56 -53l57 53h63l-93 -100h-55z" />
    <glyph glyph-name="Dcaron" unicode="&#x10e;" horiz-adv-x="411" 
d="M50 0v591h196q40 0 67 -12t41.5 -37t14.5 -65v-350q0 -49 -17 -77t-47.5 -39t-71.5 -11h-183zM149 51h69q25 0 40 14.5t15 54.5v346q0 40 -15 55t-40 15h-69v-485zM177 630l-91 92h67l53 -44l53 44h66l-92 -92h-56z" />
    <glyph glyph-name="dcaron" unicode="&#x10f;" horiz-adv-x="430" 
d="M161 -7q-34 0 -58 7.5t-39.5 24t-22.5 45t-7 70.5v243q0 31 7.5 53.5t21.5 37t35 21.5t47 7q41 0 61.5 -12t30.5 -28v168h94v-630h-64l-10 47q-5 -11 -16 -23.5t-30 -21.5t-50 -9zM181 47q20 0 31.5 7.5t16.5 20t6.5 27.5t1.5 31v280q-2 6 -7.5 13.5t-17 13t-30.5 5.5
q-20 0 -31 -5.5t-16 -16t-6 -23.5t-1 -28v-252q0 -20 2.5 -36.5t14 -26.5t36.5 -10zM357 491l22 139h59l-46 -139h-35z" />
    <glyph glyph-name="Dcroat" unicode="&#x110;" horiz-adv-x="438" 
d="M66 0v591h207q41 0 68 -12t41 -37t14 -65v-350q0 -49 -16.5 -77t-47 -39t-72.5 -11h-194zM15 261v57h197v-57h-197zM165 51h74q30 0 46 14.5t16 54.5v346q0 40 -16 55t-46 15h-74v-485z" />
    <glyph glyph-name="dcroat" unicode="&#x111;" horiz-adv-x="369" 
d="M138 535v38h226v-38h-226zM161 -7q-34 0 -58 7.5t-39.5 24t-22.5 45t-7 70.5v243q0 31 7.5 53.5t21.5 37t35 21.5t47 7q41 0 61.5 -12t30.5 -28v168h94v-630h-64l-10 47q-5 -11 -16 -23.5t-30 -21.5t-50 -9zM181 47q20 0 31.5 7.5t16.5 20t6.5 27.5t1.5 31v280
q-2 6 -7.5 13.5t-17 13t-30.5 5.5q-20 0 -31 -5.5t-16 -16t-6 -23.5t-1 -28v-252q0 -20 2.5 -36.5t14 -26.5t36.5 -10z" />
    <glyph glyph-name="Emacron" unicode="&#x112;" horiz-adv-x="337" 
d="M50 0v591h266v-68h-166v-179h137v-75h-137v-203h166v-66h-266zM83 649v48h198v-48h-198z" />
    <glyph glyph-name="emacron" unicode="&#x113;" horiz-adv-x="358" 
d="M185 -8q-51 0 -84.5 11.5t-50 44.5t-16.5 99v232q0 72 36 98.5t112 26.5t112 -26.5t36 -98.5v-132h-202v-137q0 -37 11.5 -52t44.5 -15q30 0 41 14.5t11 52.5v73h94v-35q0 -65 -16.5 -99t-48.5 -45.5t-80 -11.5zM128 291h108v92q0 34 -11 49t-43 15q-31 0 -42.5 -15
t-11.5 -49v-92zM80 563v48h198v-48h-198z" />
    <glyph glyph-name="Ebreve" unicode="&#x114;" horiz-adv-x="337" 
d="M50 0v591h266v-68h-166v-179h137v-75h-137v-203h166v-66h-266zM181 631q-43 0 -66 16t-31.5 38.5t-9.5 40.5h53q2 -25 17.5 -37t36.5 -12q23 0 38.5 11.5t17.5 37.5h53q-1 -23 -12 -45t-34.5 -36t-62.5 -14z" />
    <glyph glyph-name="ebreve" unicode="&#x115;" horiz-adv-x="358" 
d="M185 -8q-51 0 -84.5 11.5t-50 44.5t-16.5 99v232q0 72 36 98.5t112 26.5t112 -26.5t36 -98.5v-132h-202v-137q0 -37 11.5 -52t44.5 -15q30 0 41 14.5t11 52.5v73h94v-35q0 -65 -16.5 -99t-48.5 -45.5t-80 -11.5zM128 291h108v92q0 34 -11 49t-43 15q-31 0 -42.5 -15
t-11.5 -49v-92zM178 546q-43 0 -66 16t-31.5 38.5t-9.5 40.5h53q2 -25 17.5 -37t36.5 -12q23 0 38.5 11.5t17.5 37.5h53q-1 -23 -12 -45t-34.5 -36t-62.5 -14z" />
    <glyph glyph-name="Edotaccent" unicode="&#x116;" horiz-adv-x="337" 
d="M50 0v591h266v-68h-166v-179h137v-75h-137v-203h166v-66h-266zM182 639q-20 0 -33.5 13t-13.5 32t13.5 32t33.5 13q19 0 33.5 -13t14.5 -32t-14.5 -32t-33.5 -13z" />
    <glyph glyph-name="edotaccent" unicode="&#x117;" horiz-adv-x="358" 
d="M185 -8q-51 0 -84.5 11.5t-50 44.5t-16.5 99v232q0 72 36 98.5t112 26.5t112 -26.5t36 -98.5v-132h-202v-137q0 -37 11.5 -52t44.5 -15q30 0 41 14.5t11 52.5v73h94v-35q0 -65 -16.5 -99t-48.5 -45.5t-80 -11.5zM128 291h108v92q0 34 -11 49t-43 15q-31 0 -42.5 -15
t-11.5 -49v-92zM180 553q-20 0 -33.5 13t-13.5 32t13.5 32t33.5 13q19 0 33.5 -13t14.5 -32t-14.5 -32t-33.5 -13z" />
    <glyph glyph-name="Eogonek" unicode="&#x118;" horiz-adv-x="337" 
d="M50 0v591h266v-68h-166v-179h137v-75h-137v-203h166v-66h-266zM238 -141q-34 0 -55.5 18.5t-21.5 43.5q0 28 21.5 51t52.5 29l41 -1q-27 -10 -40 -29t-13 -37q0 -19 12.5 -29t25.5 -10q8 0 14 2l9 3l12 -26q-6 -4 -19.5 -9.5t-38.5 -5.5z" />
    <glyph glyph-name="eogonek" unicode="&#x119;" horiz-adv-x="358" 
d="M185 -8q-51 0 -84.5 11.5t-50 44.5t-16.5 99v232q0 72 36 98.5t112 26.5t112 -26.5t36 -98.5v-132h-202v-137q0 -37 11.5 -52t44.5 -15q30 0 41 14.5t11 52.5v73h94v-35q0 -65 -16.5 -99t-48.5 -45.5t-80 -11.5zM128 291h108v92q0 34 -11 49t-43 15q-31 0 -42.5 -15
t-11.5 -49v-92zM197 -141q-34 0 -55.5 18.5t-21.5 43.5q0 28 21.5 51t52.5 29l41 -1q-27 -10 -40 -29t-13 -37q0 -19 12.5 -29t25.5 -10q8 0 14 2l9 3l12 -26q-6 -4 -19.5 -9.5t-38.5 -5.5z" />
    <glyph glyph-name="Ecaron" unicode="&#x11a;" horiz-adv-x="337" 
d="M50 0v591h266v-68h-166v-179h137v-75h-137v-203h166v-66h-266zM154 630l-91 92h67l53 -44l53 44h66l-92 -92h-56z" />
    <glyph glyph-name="ecaron" unicode="&#x11b;" horiz-adv-x="358" 
d="M185 -8q-51 0 -84.5 11.5t-50 44.5t-16.5 99v232q0 72 36 98.5t112 26.5t112 -26.5t36 -98.5v-132h-202v-137q0 -37 11.5 -52t44.5 -15q30 0 41 14.5t11 52.5v73h94v-35q0 -65 -16.5 -99t-48.5 -45.5t-80 -11.5zM128 291h108v92q0 34 -11 49t-43 15q-31 0 -42.5 -15
t-11.5 -49v-92zM152 546l-93 100h65l56 -53l57 53h63l-93 -100h-55z" />
    <glyph glyph-name="Gcircumflex" unicode="&#x11c;" horiz-adv-x="400" 
d="M173 -11q-34 0 -64 10.5t-48.5 42t-18.5 94.5v330q0 54 20 82.5t56 39t83 10.5t83 -11t56.5 -39.5t20.5 -81.5v-80h-93v84q0 30 -8.5 45t-23 20t-34.5 5q-18 0 -33 -5t-23.5 -20t-8.5 -45v-355q0 -30 8.5 -45t23.5 -20t33 -5q29 0 47.5 17.5t18.5 52.5v120h-59v55h152
v-290h-72l-5 50q-2 -4 -5 -8.5l-5 -7.5q-12 -18 -35.5 -31.5t-65.5 -13.5zM79 630l93 96h56l94 -95h-65l-56 47l-55 -48h-67z" />
    <glyph glyph-name="gcircumflex" unicode="&#x11d;" horiz-adv-x="368" 
d="M179 -119q-13 0 -31.5 1.5t-35.5 3t-29.5 3t-15.5 2.5v51q13 -2 37.5 -4.5t42.5 -2.5q15 0 30.5 2.5t29 10.5t21.5 25t8 46v70q-5 -15 -15.5 -29.5t-29.5 -24t-50 -9.5q-22 0 -41.5 5t-34 19.5t-23 43t-8.5 74.5v212q0 64 26 94.5t82 30.5q29 0 49.5 -8t34 -22t19.5 -34
l-13 -1l15 55h83v-434q0 -36 -7.5 -69t-24.5 -57.5t-46 -39t-73 -14.5zM179 83q24 0 36 11.5t16.5 31t4.5 40.5v243q-3 7 -9.5 14.5t-17.5 12.5t-30 5q-27 0 -39 -14t-12 -51v-232q0 -21 5 -33t13.5 -18t17.5 -8t15 -2zM66 546l92 100h56l93 -100h-63l-57 53l-57 -53h-64z
" />
    <glyph glyph-name="Gbreve" unicode="&#x11e;" horiz-adv-x="400" 
d="M173 -11q-34 0 -64 10.5t-48.5 42t-18.5 94.5v330q0 54 20 82.5t56 39t83 10.5t83 -11t56.5 -39.5t20.5 -81.5v-80h-93v84q0 30 -8.5 45t-23 20t-34.5 5q-18 0 -33 -5t-23.5 -20t-8.5 -45v-355q0 -30 8.5 -45t23.5 -20t33 -5q29 0 47.5 17.5t18.5 52.5v120h-59v55h152
v-290h-72l-5 50q-2 -4 -5 -8.5l-5 -7.5q-12 -18 -35.5 -31.5t-65.5 -13.5zM199 631q-43 0 -66 16t-31.5 38.5t-9.5 40.5h53q2 -25 17.5 -37t36.5 -12q23 0 38.5 11.5t17.5 37.5h53q-1 -23 -12 -45t-34.5 -36t-62.5 -14z" />
    <glyph glyph-name="gbreve" unicode="&#x11f;" horiz-adv-x="368" 
d="M179 -119q-13 0 -31.5 1.5t-35.5 3t-29.5 3t-15.5 2.5v51q13 -2 37.5 -4.5t42.5 -2.5q15 0 30.5 2.5t29 10.5t21.5 25t8 46v70q-5 -15 -15.5 -29.5t-29.5 -24t-50 -9.5q-22 0 -41.5 5t-34 19.5t-23 43t-8.5 74.5v212q0 64 26 94.5t82 30.5q29 0 49.5 -8t34 -22t19.5 -34
l-13 -1l15 55h83v-434q0 -36 -7.5 -69t-24.5 -57.5t-46 -39t-73 -14.5zM179 83q24 0 36 11.5t16.5 31t4.5 40.5v243q-3 7 -9.5 14.5t-17.5 12.5t-30 5q-27 0 -39 -14t-12 -51v-232q0 -21 5 -33t13.5 -18t17.5 -8t15 -2zM185 546q-43 0 -66 16t-31.5 38.5t-9.5 40.5h53
q2 -25 17.5 -37t36.5 -12q23 0 38.5 11.5t17.5 37.5h53q-1 -23 -12 -45t-34.5 -36t-62.5 -14z" />
    <glyph glyph-name="Gdotaccent" unicode="&#x120;" horiz-adv-x="400" 
d="M173 -11q-34 0 -64 10.5t-48.5 42t-18.5 94.5v330q0 54 20 82.5t56 39t83 10.5t83 -11t56.5 -39.5t20.5 -81.5v-80h-93v84q0 30 -8.5 45t-23 20t-34.5 5q-18 0 -33 -5t-23.5 -20t-8.5 -45v-355q0 -30 8.5 -45t23.5 -20t33 -5q29 0 47.5 17.5t18.5 52.5v120h-59v55h152
v-290h-72l-5 50q-2 -4 -5 -8.5l-5 -7.5q-12 -18 -35.5 -31.5t-65.5 -13.5zM200 639q-20 0 -33.5 13t-13.5 32t13.5 32t33.5 13q19 0 33.5 -13t14.5 -32t-14.5 -32t-33.5 -13z" />
    <glyph glyph-name="gdotaccent" unicode="&#x121;" horiz-adv-x="368" 
d="M179 -119q-13 0 -31.5 1.5t-35.5 3t-29.5 3t-15.5 2.5v51q13 -2 37.5 -4.5t42.5 -2.5q15 0 30.5 2.5t29 10.5t21.5 25t8 46v70q-5 -15 -15.5 -29.5t-29.5 -24t-50 -9.5q-22 0 -41.5 5t-34 19.5t-23 43t-8.5 74.5v212q0 64 26 94.5t82 30.5q29 0 49.5 -8t34 -22t19.5 -34
l-13 -1l15 55h83v-434q0 -36 -7.5 -69t-24.5 -57.5t-46 -39t-73 -14.5zM179 83q24 0 36 11.5t16.5 31t4.5 40.5v243q-3 7 -9.5 14.5t-17.5 12.5t-30 5q-27 0 -39 -14t-12 -51v-232q0 -21 5 -33t13.5 -18t17.5 -8t15 -2zM186 553q-20 0 -33.5 13t-13.5 32t13.5 32t33.5 13
q19 0 33.5 -13t14.5 -32t-14.5 -32t-33.5 -13z" />
    <glyph glyph-name="uni0122" unicode="&#x122;" horiz-adv-x="400" 
d="M173 -11q-34 0 -64 10.5t-48.5 42t-18.5 94.5v330q0 54 20 82.5t56 39t83 10.5t83 -11t56.5 -39.5t20.5 -81.5v-80h-93v84q0 30 -8.5 45t-23 20t-34.5 5q-18 0 -33 -5t-23.5 -20t-8.5 -45v-355q0 -30 8.5 -45t23.5 -20t33 -5q29 0 47.5 17.5t18.5 52.5v120h-59v55h152
v-290h-72l-5 50q-2 -4 -5 -8.5l-5 -7.5q-12 -18 -35.5 -31.5t-65.5 -13.5zM153 -179q13 20 21.5 37.5t8.5 28.5q0 7 -6 12t-12.5 11.5t-6.5 18.5q0 13 12 23.5t30 10.5q20 0 32.5 -11.5t12.5 -28.5q0 -13 -8.5 -31.5t-20 -37t-24.5 -33.5h-39z" />
    <glyph glyph-name="uni0123" unicode="&#x123;" horiz-adv-x="368" 
d="M230 684q-13 -20 -21.5 -37.5t-8.5 -28.5q0 -7 6 -12t12 -11.5t6 -18.5q0 -13 -11.5 -23t-29.5 -10q-20 0 -32.5 11.5t-12.5 27.5q0 14 8.5 32t20.5 37t24 33h39zM179 -119q-13 0 -31.5 1.5t-35.5 3t-29.5 3t-15.5 2.5v51q13 -2 37.5 -4.5t42.5 -2.5q15 0 30.5 2.5
t29 10.5t21.5 25t8 46v70q-5 -15 -15.5 -29.5t-29.5 -24t-50 -9.5q-22 0 -41.5 5t-34 19.5t-23 43t-8.5 74.5v212q0 64 26 94.5t82 30.5q29 0 49.5 -8t34 -22t19.5 -34l-13 -1l15 55h83v-434q0 -36 -7.5 -69t-24.5 -57.5t-46 -39t-73 -14.5zM179 83q24 0 36 11.5t16.5 31
t4.5 40.5v243q-3 7 -9.5 14.5t-17.5 12.5t-30 5q-27 0 -39 -14t-12 -51v-232q0 -21 5 -33t13.5 -18t17.5 -8t15 -2z" />
    <glyph glyph-name="Hcircumflex" unicode="&#x124;" horiz-adv-x="417" 
d="M50 0v591h95v-248h127v248h95v-591h-95v271h-127v-271h-95zM87 630l93 96h56l94 -95h-65l-56 47l-55 -48h-67z" />
    <glyph glyph-name="hcircumflex" unicode="&#x125;" horiz-adv-x="377" 
d="M43 0v630h88v-183q13 27 36.5 42t59.5 15q49 0 73.5 -17t32.5 -46.5t8 -67.5v-373h-94v366q0 12 -1 24.5t-6 23t-16.5 17t-32.5 6.5q-18 0 -30 -5.5t-17.5 -13t-6.5 -12.5v-406h-94zM-36 669l93 96h56l94 -95h-65l-56 47l-55 -48h-67z" />
    <glyph glyph-name="Hbar" unicode="&#x126;" horiz-adv-x="417" 
d="M50 0v591h95v-248h127v248h95v-591h-95v271h-127v-271h-95zM18 454v45h382v-45h-382z" />
    <glyph glyph-name="hbar" unicode="&#x127;" horiz-adv-x="377" 
d="M43 0v630h88v-183q13 27 36.5 42t59.5 15q49 0 73.5 -17t32.5 -46.5t8 -67.5v-373h-94v366q0 12 -1 24.5t-6 23t-16.5 17t-32.5 6.5q-18 0 -30 -5.5t-17.5 -13t-6.5 -12.5v-406h-94zM2 539v48h198v-48h-198z" />
    <glyph glyph-name="Itilde" unicode="&#x128;" horiz-adv-x="195" 
d="M50 0v591h95v-591h-95zM140 638q-15 0 -26.5 5t-25.5 14q-9 6 -20 11.5t-23 5.5t-20 -9t-10 -26h-30q1 35 17.5 57.5t43.5 22.5q15 0 28 -5.5t25 -13.5q11 -6 21 -11t20 -5q15 0 22 9t10 24h33q-1 -25 -10.5 -43t-24 -27t-30.5 -9z" />
    <glyph glyph-name="itilde" unicode="&#x129;" horiz-adv-x="180" 
d="M43 0v495h94v-495h-94zM135 552q-15 0 -26.5 5t-25.5 14q-9 6 -20 11.5t-23 5.5t-20 -9t-10 -26h-30q1 35 17.5 57.5t43.5 22.5q15 0 28 -5.5t25 -13.5q11 -6 21 -11t20 -5q15 0 22 9t10 24h33q-1 -25 -10.5 -43t-24 -27t-30.5 -9z" />
    <glyph glyph-name="Imacron" unicode="&#x12a;" horiz-adv-x="195" 
d="M50 0v591h95v-591h-95zM-1 649v48h198v-48h-198z" />
    <glyph glyph-name="imacron" unicode="&#x12b;" horiz-adv-x="180" 
d="M43 0v495h94v-495h-94zM-9 563v48h198v-48h-198z" />
    <glyph glyph-name="Ibreve" unicode="&#x12c;" horiz-adv-x="195" 
d="M50 0v591h95v-591h-95zM97 631q-43 0 -66 16t-31.5 38.5t-9.5 40.5h53q2 -25 17.5 -37t36.5 -12q23 0 38.5 11.5t17.5 37.5h53q-1 -23 -12 -45t-34.5 -36t-62.5 -14z" />
    <glyph glyph-name="ibreve" unicode="&#x12d;" horiz-adv-x="180" 
d="M43 0v495h94v-495h-94zM89 546q-43 0 -66 16t-31.5 38.5t-9.5 40.5h53q2 -25 17.5 -37t36.5 -12q23 0 38.5 11.5t17.5 37.5h53q-1 -23 -12 -45t-34.5 -36t-62.5 -14z" />
    <glyph glyph-name="Iogonek" unicode="&#x12e;" horiz-adv-x="195" 
d="M50 0v591h95v-591h-95zM107 -141q-34 0 -55.5 18.5t-21.5 43.5q0 28 21.5 51t52.5 29l41 -1q-27 -10 -40 -29t-13 -37q0 -19 12.5 -29t25.5 -10q8 0 14 2l9 3l12 -26q-6 -4 -19.5 -9.5t-38.5 -5.5z" />
    <glyph glyph-name="iogonek" unicode="&#x12f;" horiz-adv-x="180" 
d="M43 0v495h94v-495h-94zM90 553q-20 0 -33.5 13t-13.5 32t13.5 32t33.5 13q19 0 33.5 -13t14.5 -32t-14.5 -32t-33.5 -13zM100 -141q-34 0 -55.5 18.5t-21.5 43.5q0 28 21.5 51t52.5 29l41 -1q-27 -10 -40 -29t-13 -37q0 -19 12.5 -29t25.5 -10q8 0 14 2l9 3l12 -26
q-6 -4 -19.5 -9.5t-38.5 -5.5z" />
    <glyph glyph-name="Idotaccent" unicode="&#x130;" horiz-adv-x="195" 
d="M50 0v591h95v-591h-95zM98 639q-20 0 -33.5 13t-13.5 32t13.5 32t33.5 13q19 0 33.5 -13t14.5 -32t-14.5 -32t-33.5 -13z" />
    <glyph glyph-name="dotlessi" unicode="&#x131;" horiz-adv-x="180" 
d="M43 0v495h94v-495h-94z" />
    <glyph glyph-name="Jcircumflex" unicode="&#x134;" horiz-adv-x="234" 
d="M51 -1h-22t-23 1v67l32 -1q31 0 42 11t11 44v470h96v-451q0 -54 -12 -85t-41.5 -43.5t-82.5 -12.5zM18 630l93 96h56l94 -95h-65l-56 47l-55 -48h-67z" />
    <glyph glyph-name="jcircumflex" unicode="&#x135;" horiz-adv-x="178" 
d="M-24 -112q-6 1 -18 1.5t-16 1.5v51q7 -1 18 -0.5t18 0.5q31 1 48 15t17 43v495h94v-469q0 -60 -22.5 -90.5t-59 -40t-79.5 -7.5zM-32 546l92 100h56l93 -100h-63l-57 53l-57 -53h-64z" />
    <glyph glyph-name="uni0136" unicode="&#x136;" horiz-adv-x="396" 
d="M282 0l-128 307l125 284h103l-134 -284l139 -307h-105zM50 0v591h95v-591h-95zM160 -179q13 20 21.5 37.5t8.5 28.5q0 7 -6 12t-12.5 11.5t-6.5 18.5q0 13 12 23.5t30 10.5q20 0 32.5 -11.5t12.5 -28.5q0 -13 -8.5 -31.5t-20 -37t-24.5 -33.5h-39z" />
    <glyph glyph-name="uni0137" unicode="&#x137;" horiz-adv-x="363" 
d="M250 0l-102 287l111 208h93l-114 -209l114 -286h-102zM43 0v633h94v-633h-94zM139 -179q13 20 21.5 37.5t8.5 28.5q0 7 -6 12t-12.5 11.5t-6.5 18.5q0 13 12 23.5t30 10.5q20 0 32.5 -11.5t12.5 -28.5q0 -13 -8.5 -31.5t-20 -37t-24.5 -33.5h-39z" />
    <glyph glyph-name="kgreenlandic" unicode="&#x138;" horiz-adv-x="363" 
d="M250 0l-102 287l111 208h93l-114 -209l114 -286h-102zM43 0v548h94v-548h-94z" />
    <glyph glyph-name="Lacute" unicode="&#x139;" horiz-adv-x="298" 
d="M50 0v591h94v-525h147v-66h-241zM67 634l79 90h89l-113 -90h-55z" />
    <glyph glyph-name="lacute" unicode="&#x13a;" horiz-adv-x="180" 
d="M43 0v633h94v-633h-94zM35 673l79 90h89l-113 -90h-55z" />
    <glyph glyph-name="uni013B" unicode="&#x13b;" horiz-adv-x="298" 
d="M50 0v591h94v-525h147v-66h-241zM120 -179q13 20 21.5 37.5t8.5 28.5q0 7 -6 12t-12.5 11.5t-6.5 18.5q0 13 12 23.5t30 10.5q20 0 32.5 -11.5t12.5 -28.5q0 -13 -8.5 -31.5t-20 -37t-24.5 -33.5h-39z" />
    <glyph glyph-name="uni013C" unicode="&#x13c;" horiz-adv-x="180" 
d="M43 0v633h94v-633h-94zM42 -179q13 20 21.5 37.5t8.5 28.5q0 7 -6 12t-12.5 11.5t-6.5 18.5q0 13 12 23.5t30 10.5q20 0 32.5 -11.5t12.5 -28.5q0 -13 -8.5 -31.5t-20 -37t-24.5 -33.5h-39z" />
    <glyph glyph-name="Lcaron" unicode="&#x13d;" horiz-adv-x="313" 
d="M50 0v591h94v-525h147v-66h-241zM219 469l22 139h59l-46 -139h-35z" />
    <glyph glyph-name="lcaron" unicode="&#x13e;" horiz-adv-x="238" 
d="M43 0v633h94v-633h-94zM168 510l22 139h59l-46 -139h-35z" />
    <glyph glyph-name="Ldot" unicode="&#x13f;" horiz-adv-x="298" 
d="M50 0v591h94v-525h147v-66h-241zM300 234q-21 0 -36 14.5t-15 34.5q0 21 15 35t36 14t36.5 -14t15.5 -35q0 -20 -15.5 -34.5t-36.5 -14.5z" />
    <glyph glyph-name="ldot" unicode="&#x140;" horiz-adv-x="180" 
d="M43 0v633h94v-633h-94zM236 233q-21 0 -36 14.5t-15 34.5q0 21 15 35t36 14t36.5 -14t15.5 -35q0 -20 -15.5 -34.5t-36.5 -14.5z" />
    <glyph glyph-name="Lslash" unicode="&#x141;" horiz-adv-x="323" 
d="M75 0v166l-58 -26v45l58 26v377h95v-336l84 39v-44l-84 -39v-142h145v-66h-240z" />
    <glyph glyph-name="lslash" unicode="&#x142;" horiz-adv-x="286" 
d="M95 0v169l-64 -29v45l64 28v420h93v-378l67 30v-43l-67 -31v-211h-93z" />
    <glyph glyph-name="Nacute" unicode="&#x143;" horiz-adv-x="415" 
d="M50 0v591h83l147 -398v398h85v-591h-84l-146 377v-377h-85zM156 634l79 90h89l-113 -90h-55z" />
    <glyph glyph-name="nacute" unicode="&#x144;" horiz-adv-x="377" 
d="M43 0v495h79l9 -56q9 30 36.5 48t59.5 18q49 0 73.5 -17.5t32.5 -47t8 -67.5v-373h-94v366q0 14 -1 26.5t-6 22.5t-16 16t-32 6q-17 0 -28.5 -6t-17.5 -14.5t-9 -16.5v-400h-94zM149 547l57 97h87l-90 -97h-54z" />
    <glyph glyph-name="uni0145" unicode="&#x145;" horiz-adv-x="415" 
d="M50 0v591h83l147 -398v398h85v-591h-84l-146 377v-377h-85zM159 -179q13 20 21.5 37.5t8.5 28.5q0 7 -6 12t-12.5 11.5t-6.5 18.5q0 13 12 23.5t30 10.5q20 0 32.5 -11.5t12.5 -28.5q0 -13 -8.5 -31.5t-20 -37t-24.5 -33.5h-39z" />
    <glyph glyph-name="uni0146" unicode="&#x146;" horiz-adv-x="377" 
d="M43 0v495h79l9 -56q9 30 36.5 48t59.5 18q49 0 73.5 -17.5t32.5 -47t8 -67.5v-373h-94v366q0 14 -1 26.5t-6 22.5t-16 16t-32 6q-17 0 -28.5 -6t-17.5 -14.5t-9 -16.5v-400h-94zM142 -179q13 20 21.5 37.5t8.5 28.5q0 7 -6 12t-12.5 11.5t-6.5 18.5q0 13 12 23.5t30 10.5
q20 0 32.5 -11.5t12.5 -28.5q0 -13 -8.5 -31.5t-20 -37t-24.5 -33.5h-39z" />
    <glyph glyph-name="Ncaron" unicode="&#x147;" horiz-adv-x="415" 
d="M50 0v591h83l147 -398v398h85v-591h-84l-146 377v-377h-85zM182 630l-91 92h67l53 -44l53 44h66l-92 -92h-56z" />
    <glyph glyph-name="ncaron" unicode="&#x148;" horiz-adv-x="377" 
d="M43 0v495h79l9 -56q9 30 36.5 48t59.5 18q49 0 73.5 -17.5t32.5 -47t8 -67.5v-373h-94v366q0 14 -1 26.5t-6 22.5t-16 16t-32 6q-17 0 -28.5 -6t-17.5 -14.5t-9 -16.5v-400h-94zM161 546l-93 100h65l56 -53l57 53h63l-93 -100h-55z" />
    <glyph glyph-name="Eng" unicode="&#x14a;" horiz-adv-x="416" 
d="M239 -181h-21.5t-22.5 1v67l31 -1q31 0 42.5 11t11.5 44v61l-145 375v-377h-85l1 591h83l146 -398l1 398h85l-1 -631q0 -55 -11 -85.5t-38.5 -43t-76.5 -12.5z" />
    <glyph glyph-name="eng" unicode="&#x14b;" horiz-adv-x="371" 
d="M186 -113q-10 0 -20.5 1t-19.5 3v49q1 0 7 -0.5t13 -0.5h9q32 0 48.5 12t16.5 42v371q0 19 -2.5 35.5t-14 26.5t-37.5 10q-18 0 -29.5 -6t-17.5 -14.5t-9 -17.5v-398h-94v495h80l8 -57q11 31 38 47.5t58 16.5q50 0 74.5 -17t32 -46.5t7.5 -67.5v-347q0 -55 -20.5 -85.5
t-53.5 -41.5t-74 -10z" />
    <glyph glyph-name="Omacron" unicode="&#x14c;" horiz-adv-x="403" 
d="M200 -12q-47 0 -82.5 11t-55.5 45.5t-20 103.5v319q0 54 20 82.5t56 39.5t83 11t82.5 -11.5t56.5 -40t21 -81.5v-318q0 -71 -21 -105t-57 -45t-83 -11zM200 45q19 0 34 5.5t23 20.5t8 44v355q0 28 -8 43.5t-23 21t-34 5.5t-33.5 -5.5t-22.5 -21t-8 -43.5v-355
q0 -29 8 -44t22.5 -20.5t33.5 -5.5zM103 649v48h198v-48h-198z" />
    <glyph glyph-name="omacron" unicode="&#x14d;" horiz-adv-x="364" 
d="M183 -8q-49 0 -82.5 12.5t-50 46.5t-16.5 98v218q0 75 36 106t113 31q76 0 112 -30.5t36 -106.5v-218q0 -64 -16.5 -98t-49.5 -46.5t-82 -12.5zM183 49q29 0 41.5 15.5t12.5 55.5v255q0 39 -12 55t-42 16q-29 0 -42 -15.5t-13 -55.5v-255q0 -40 13 -55.5t42 -15.5z
M83 563v48h198v-48h-198z" />
    <glyph glyph-name="Obreve" unicode="&#x14e;" horiz-adv-x="403" 
d="M200 -12q-47 0 -82.5 11t-55.5 45.5t-20 103.5v319q0 54 20 82.5t56 39.5t83 11t82.5 -11.5t56.5 -40t21 -81.5v-318q0 -71 -21 -105t-57 -45t-83 -11zM200 45q19 0 34 5.5t23 20.5t8 44v355q0 28 -8 43.5t-23 21t-34 5.5t-33.5 -5.5t-22.5 -21t-8 -43.5v-355
q0 -29 8 -44t22.5 -20.5t33.5 -5.5zM200 631q-43 0 -66 16t-31.5 38.5t-9.5 40.5h53q2 -25 17.5 -37t36.5 -12q23 0 38.5 11.5t17.5 37.5h53q-1 -23 -12 -45t-34.5 -36t-62.5 -14z" />
    <glyph glyph-name="obreve" unicode="&#x14f;" horiz-adv-x="364" 
d="M183 -8q-49 0 -82.5 12.5t-50 46.5t-16.5 98v218q0 75 36 106t113 31q76 0 112 -30.5t36 -106.5v-218q0 -64 -16.5 -98t-49.5 -46.5t-82 -12.5zM183 49q29 0 41.5 15.5t12.5 55.5v255q0 39 -12 55t-42 16q-29 0 -42 -15.5t-13 -55.5v-255q0 -40 13 -55.5t42 -15.5z
M181 546q-43 0 -66 16t-31.5 38.5t-9.5 40.5h53q2 -25 17.5 -37t36.5 -12q23 0 38.5 11.5t17.5 37.5h53q-1 -23 -12 -45t-34.5 -36t-62.5 -14z" />
    <glyph glyph-name="Ohungarumlaut" unicode="&#x150;" horiz-adv-x="403" 
d="M200 -12q-47 0 -82.5 11t-55.5 45.5t-20 103.5v319q0 54 20 82.5t56 39.5t83 11t82.5 -11.5t56.5 -40t21 -81.5v-318q0 -71 -21 -105t-57 -45t-83 -11zM200 45q19 0 34 5.5t23 20.5t8 44v355q0 28 -8 43.5t-23 21t-34 5.5t-33.5 -5.5t-22.5 -21t-8 -43.5v-355
q0 -29 8 -44t22.5 -20.5t33.5 -5.5zM130 629l21 97h76l-59 -97h-38zM215 629l32 97h76l-64 -97h-44z" />
    <glyph glyph-name="ohungarumlaut" unicode="&#x151;" horiz-adv-x="364" 
d="M183 -8q-49 0 -82.5 12.5t-50 46.5t-16.5 98v218q0 75 36 106t113 31q76 0 112 -30.5t36 -106.5v-218q0 -64 -16.5 -98t-49.5 -46.5t-82 -12.5zM183 49q29 0 41.5 15.5t12.5 55.5v255q0 39 -12 55t-42 16q-29 0 -42 -15.5t-13 -55.5v-255q0 -40 13 -55.5t42 -15.5z
M118 547l21 97h76l-59 -97h-38zM203 547l32 97h76l-64 -97h-44z" />
    <glyph glyph-name="OE" unicode="&#x152;" horiz-adv-x="564" 
d="M200 -12q-46 0 -82 11t-56 45.5t-20 103.5v319q0 54 20.5 82.5t56.5 39.5t82 11q44 0 77.5 -11.5t52.5 -40t19 -81.5v-318q0 -71 -19 -105t-53 -45t-78 -11zM201 45q19 0 33.5 5.5t22.5 20.5t8 44v355q0 28 -8 43.5t-23 21t-33 5.5q-19 0 -33.5 -5.5t-23 -21t-8.5 -43.5
v-355q0 -29 8.5 -44t23 -20.5t33.5 -5.5zM266 0v591h276v-68h-181v-179h153v-75h-153v-203h181v-66h-276z" />
    <glyph glyph-name="oe" unicode="&#x153;" horiz-adv-x="562" 
d="M178 -8q-52 0 -84 15.5t-46 50t-14 91.5v218q0 44 13.5 74t45.5 46t85 16q48 0 77.5 -18t43.5 -48.5t14 -69.5v-218q0 -47 -12 -82.5t-41.5 -55t-81.5 -19.5zM183 49q24 0 35.5 9.5t15 26t3.5 35.5v255q0 20 -3.5 36t-15 26t-35.5 10q-25 0 -37 -10t-15 -26t-3 -36v-255
q0 -19 3 -35.5t15 -26t37 -9.5zM391 -8q-74 0 -106 35t-32 120v220q0 73 36 105t102 32q71 0 106.5 -27t35.5 -98v-132h-202v-133q0 -38 11.5 -52.5t42.5 -14.5q32 0 43 14.5t11 52.5v69h94v-35q0 -60 -15.5 -94.5t-46.5 -48t-80 -13.5zM331 291h108v92q0 35 -11 50t-43 15
q-31 0 -42.5 -15t-11.5 -50v-92z" />
    <glyph glyph-name="Racute" unicode="&#x154;" horiz-adv-x="417" 
d="M50 0v591h204q56 0 86.5 -25t30.5 -74v-94q0 -49 -27 -79.5t-80 -33.5v0q34 -3 48.5 -22t26.5 -59l57 -204h-106l-47 197q-7 25 -16 44t-29 19h-49v-260h-99zM149 327h64q35 0 49.5 18t14.5 55v75q0 33 -13.5 48t-41.5 15h-73v-211zM153 634l79 90h89l-113 -90h-55z" />
    <glyph glyph-name="racute" unicode="&#x155;" horiz-adv-x="271" 
d="M43 0v495h80l8 -57q10 25 31 37.5t43 17.5q31 11 63 4v-73q-3 1 -15 2.5t-27 0.5t-26 -7q-29 -7 -46 -28.5t-17 -53.5v-338h-94zM121 547l57 97h87l-90 -97h-54z" />
    <glyph glyph-name="uni0156" unicode="&#x156;" horiz-adv-x="417" 
d="M50 0v591h204q56 0 86.5 -25t30.5 -74v-94q0 -49 -27 -79.5t-80 -33.5v0q34 -3 48.5 -22t26.5 -59l57 -204h-106l-47 197q-7 25 -16 44t-29 19h-49v-260h-99zM149 327h64q35 0 49.5 18t14.5 55v75q0 33 -13.5 48t-41.5 15h-73v-211zM166 -179q13 20 21.5 37.5t8.5 28.5
q0 7 -6 12t-12.5 11.5t-6.5 18.5q0 13 12 23.5t30 10.5q20 0 32.5 -11.5t12.5 -28.5q0 -13 -8.5 -31.5t-20 -37t-24.5 -33.5h-39z" />
    <glyph glyph-name="uni0157" unicode="&#x157;" horiz-adv-x="271" 
d="M43 0v495h80l8 -57q10 25 31 37.5t43 17.5q31 11 63 4v-73q-3 1 -15 2.5t-27 0.5t-26 -7q-29 -7 -46 -28.5t-17 -53.5v-338h-94zM42 -179q13 20 21.5 37.5t8.5 28.5q0 7 -6 12t-12.5 11.5t-6.5 18.5q0 13 12 23.5t30 10.5q20 0 32.5 -11.5t12.5 -28.5q0 -13 -8.5 -31.5
t-20 -37t-24.5 -33.5h-39z" />
    <glyph glyph-name="Rcaron" unicode="&#x158;" horiz-adv-x="417" 
d="M50 0v591h204q56 0 86.5 -25t30.5 -74v-94q0 -49 -27 -79.5t-80 -33.5v0q34 -3 48.5 -22t26.5 -59l57 -204h-106l-47 197q-7 25 -16 44t-29 19h-49v-260h-99zM149 327h64q35 0 49.5 18t14.5 55v75q0 33 -13.5 48t-41.5 15h-73v-211zM180 630l-91 92h67l53 -44l53 44h66
l-92 -92h-56z" />
    <glyph glyph-name="rcaron" unicode="&#x159;" horiz-adv-x="271" 
d="M43 0v495h80l8 -57q10 25 31 37.5t43 17.5q31 11 63 4v-73q-3 1 -15 2.5t-27 0.5t-26 -7q-29 -7 -46 -28.5t-17 -53.5v-338h-94zM133 546l-93 100h65l56 -53l57 53h63l-93 -100h-55z" />
    <glyph glyph-name="Sacute" unicode="&#x15a;" 
d="M188 -7q-49 0 -85 15t-54.5 53t-18.5 107v34h49h49v-42q0 -42 8 -65t22 -31.5t32 -8.5q29 0 46.5 19.5t17.5 73.5q0 40 -12 60t-37.5 32.5t-65.5 28.5q-33 15 -57 35t-36 51t-12 77q0 56 14.5 91.5t49.5 52t94 16.5q76 0 116 -34.5t40 -100.5v-69h-46.5h-47.5v41
q0 46 -14.5 66.5t-46.5 20.5q-33 0 -47.5 -19.5t-14.5 -61.5q0 -36 14 -55.5t36.5 -30.5t46.5 -20q45 -17 73 -35t41 -48t13 -85q0 -63 -20.5 -99.5t-58 -52.5t-88.5 -16zM137 634l79 90h89l-113 -90h-55z" />
    <glyph glyph-name="sacute" unicode="&#x15b;" horiz-adv-x="360" 
d="M179 -7q-59 0 -92 14.5t-46 46.5t-13 81v41h95v-62q0 -38 11.5 -53.5t43.5 -15.5q28 0 40.5 15t12.5 47v34q0 23 -8.5 38.5t-27.5 26.5t-50 24q-29 12 -53.5 26t-39 37t-14.5 59v30q0 59 33 90t116 31q54 0 85.5 -14t45 -44.5t13.5 -78.5v-38h-91v52q0 40 -12.5 55.5
t-40.5 15.5q-31 0 -42 -16t-11 -39v-33q0 -27 13.5 -42.5t35.5 -25t50 -21.5q27 -10 49.5 -23.5t35.5 -36t13 -60.5v-27q0 -44 -14 -73.5t-47 -45t-91 -15.5zM140 547l57 97h87l-90 -97h-54z" />
    <glyph glyph-name="Scircumflex" unicode="&#x15c;" 
d="M188 -7q-49 0 -85 15t-54.5 53t-18.5 107v34h49h49v-42q0 -42 8 -65t22 -31.5t32 -8.5q29 0 46.5 19.5t17.5 73.5q0 40 -12 60t-37.5 32.5t-65.5 28.5q-33 15 -57 35t-36 51t-12 77q0 56 14.5 91.5t49.5 52t94 16.5q76 0 116 -34.5t40 -100.5v-69h-46.5h-47.5v41
q0 46 -14.5 66.5t-46.5 20.5q-33 0 -47.5 -19.5t-14.5 -61.5q0 -36 14 -55.5t36.5 -30.5t46.5 -20q45 -17 73 -35t41 -48t13 -85q0 -63 -20.5 -99.5t-58 -52.5t-88.5 -16zM71 630l93 96h56l94 -95h-65l-56 47l-55 -48h-67z" />
    <glyph glyph-name="scircumflex" unicode="&#x15d;" horiz-adv-x="360" 
d="M179 -7q-59 0 -92 14.5t-46 46.5t-13 81v41h95v-62q0 -38 11.5 -53.5t43.5 -15.5q28 0 40.5 15t12.5 47v34q0 23 -8.5 38.5t-27.5 26.5t-50 24q-29 12 -53.5 26t-39 37t-14.5 59v30q0 59 33 90t116 31q54 0 85.5 -14t45 -44.5t13.5 -78.5v-38h-91v52q0 40 -12.5 55.5
t-40.5 15.5q-31 0 -42 -16t-11 -39v-33q0 -27 13.5 -42.5t35.5 -25t50 -21.5q27 -10 49.5 -23.5t35.5 -36t13 -60.5v-27q0 -44 -14 -73.5t-47 -45t-91 -15.5zM60 546l92 100h56l93 -100h-63l-57 53l-57 -53h-64z" />
    <glyph glyph-name="Scedilla" unicode="&#x15e;" 
d="M188 -7q-49 0 -85 15t-54.5 53t-18.5 107v34h49h49v-42q0 -42 8 -65t22 -31.5t32 -8.5q29 0 46.5 19.5t17.5 73.5q0 40 -12 60t-37.5 32.5t-65.5 28.5q-33 15 -57 35t-36 51t-12 77q0 56 14.5 91.5t49.5 52t94 16.5q76 0 116 -34.5t40 -100.5v-69h-46.5h-47.5v41
q0 46 -14.5 66.5t-46.5 20.5q-33 0 -47.5 -19.5t-14.5 -61.5q0 -36 14 -55.5t36.5 -30.5t46.5 -20q45 -17 73 -35t41 -48t13 -85q0 -63 -20.5 -99.5t-58 -52.5t-88.5 -16zM188 -155q-18 0 -33 6.5t-22 10.5l12 31q6 -5 18 -9t21 -4q17 0 26 8t9 21q0 11 -7.5 17t-18.5 6
q-7 0 -12.5 -2.5t-9.5 -5.5l-28 15l32 61h37l-27 -52l-6 3q7 4 16 6.5t20 2.5q27 0 42 -16.5t15 -34.5q0 -27 -22 -45.5t-62 -18.5z" />
    <glyph glyph-name="scedilla" unicode="&#x15f;" horiz-adv-x="360" 
d="M179 -7q-59 0 -92 14.5t-46 46.5t-13 81v41h95v-62q0 -38 11.5 -53.5t43.5 -15.5q28 0 40.5 15t12.5 47v34q0 23 -8.5 38.5t-27.5 26.5t-50 24q-29 12 -53.5 26t-39 37t-14.5 59v30q0 59 33 90t116 31q54 0 85.5 -14t45 -44.5t13.5 -78.5v-38h-91v52q0 40 -12.5 55.5
t-40.5 15.5q-31 0 -42 -16t-11 -39v-33q0 -27 13.5 -42.5t35.5 -25t50 -21.5q27 -10 49.5 -23.5t35.5 -36t13 -60.5v-27q0 -44 -14 -73.5t-47 -45t-91 -15.5zM176 -155q-18 0 -33 6.5t-22 10.5l12 31q6 -5 18 -9t21 -4q17 0 26 8t9 21q0 11 -7.5 17t-18.5 6q-7 0 -12.5 -2.5
t-9.5 -5.5l-28 15l32 61h37l-27 -52l-6 3q7 4 16 6.5t20 2.5q27 0 42 -16.5t15 -34.5q0 -27 -22 -45.5t-62 -18.5z" />
    <glyph glyph-name="Scaron" unicode="&#x160;" 
d="M188 -7q-49 0 -85 15t-54.5 53t-18.5 107v34h49h49v-42q0 -42 8 -65t22 -31.5t32 -8.5q29 0 46.5 19.5t17.5 73.5q0 40 -12 60t-37.5 32.5t-65.5 28.5q-33 15 -57 35t-36 51t-12 77q0 56 14.5 91.5t49.5 52t94 16.5q76 0 116 -34.5t40 -100.5v-69h-46.5h-47.5v41
q0 46 -14.5 66.5t-46.5 20.5q-33 0 -47.5 -19.5t-14.5 -61.5q0 -36 14 -55.5t36.5 -30.5t46.5 -20q45 -17 73 -35t41 -48t13 -85q0 -63 -20.5 -99.5t-58 -52.5t-88.5 -16zM164 630l-91 92h67l53 -44l53 44h66l-92 -92h-56z" />
    <glyph glyph-name="scaron" unicode="&#x161;" horiz-adv-x="360" 
d="M179 -7q-59 0 -92 14.5t-46 46.5t-13 81v41h95v-62q0 -38 11.5 -53.5t43.5 -15.5q28 0 40.5 15t12.5 47v34q0 23 -8.5 38.5t-27.5 26.5t-50 24q-29 12 -53.5 26t-39 37t-14.5 59v30q0 59 33 90t116 31q54 0 85.5 -14t45 -44.5t13.5 -78.5v-38h-91v52q0 40 -12.5 55.5
t-40.5 15.5q-31 0 -42 -16t-11 -39v-33q0 -27 13.5 -42.5t35.5 -25t50 -21.5q27 -10 49.5 -23.5t35.5 -36t13 -60.5v-27q0 -44 -14 -73.5t-47 -45t-91 -15.5zM152 546l-93 100h65l56 -53l57 53h63l-93 -100h-55z" />
    <glyph glyph-name="uni0162" unicode="&#x162;" horiz-adv-x="306" 
d="M104 0v523h-94v68h286v-68h-96v-523h-96zM148 -155q-18 0 -33 6.5t-22 10.5l12 31q6 -5 18 -9t21 -4q17 0 26 8t9 21q0 11 -7.5 17t-18.5 6q-7 0 -12.5 -2.5t-9.5 -5.5l-28 15l32 61h37l-27 -52l-6 3q7 4 16 6.5t20 2.5q27 0 42 -16.5t15 -34.5q0 -27 -22 -45.5
t-62 -18.5z" />
    <glyph glyph-name="uni0163" unicode="&#x163;" horiz-adv-x="263" 
d="M174 -3q-22 0 -43 5t-37 16.5t-25.5 32t-9.5 52.5v335h-46v48l54 9l14 92h72v-92h99v-57h-99v-319q0 -23 9 -40.5t39 -17.5q13 0 29.5 1.5t21.5 1.5v-57q-5 -1 -28 -5.5t-50 -4.5zM137 -155q-18 0 -33 6.5t-22 10.5l12 31q6 -5 18 -9t21 -4q17 0 26 8t9 21q0 11 -7.5 17
t-18.5 6q-7 0 -12.5 -2.5t-9.5 -5.5l-28 15l32 61h37l-27 -52l-6 3q7 4 16 6.5t20 2.5q27 0 42 -16.5t15 -34.5q0 -27 -22 -45.5t-62 -18.5z" />
    <glyph glyph-name="Tcaron" unicode="&#x164;" horiz-adv-x="306" 
d="M104 0v523h-94v68h286v-68h-96v-523h-96zM124 630l-91 92h67l53 -44l53 44h66l-92 -92h-56z" />
    <glyph glyph-name="tcaron" unicode="&#x165;" horiz-adv-x="263" 
d="M174 -3q-22 0 -43 5t-37 16.5t-25.5 32t-9.5 52.5v335h-46v48l54 9l14 92h72v-92h99v-57h-99v-319q0 -23 9 -40.5t39 -17.5q13 0 29.5 1.5t21.5 1.5v-57q-5 -1 -28 -5.5t-50 -4.5zM189 549l22 139h59l-46 -139h-35z" />
    <glyph glyph-name="Tbar" unicode="&#x166;" horiz-adv-x="306" 
d="M104 0v523h-94v68h286v-68h-96v-523h-96zM54 392v48h198v-48h-198z" />
    <glyph glyph-name="tbar" unicode="&#x167;" horiz-adv-x="263" 
d="M174 -3q-22 0 -43 5t-37 16.5t-25.5 32t-9.5 52.5v335h-46v48l54 9l14 92h72v-92h99v-57h-99v-319q0 -23 9 -40.5t39 -17.5q13 0 29.5 1.5t21.5 1.5v-57q-5 -1 -28 -5.5t-50 -4.5zM22 327v48h198v-48h-198z" />
    <glyph glyph-name="Utilde" unicode="&#x168;" horiz-adv-x="410" 
d="M205 -12q-34 0 -63 5t-50 20t-33 45t-12 81v452h96v-477q0 -27 8.5 -41.5t22.5 -19.5t31 -5t31 5t22.5 19.5t8.5 41.5v477h95v-451q0 -51 -11.5 -81.5t-32.5 -45.5t-50 -20t-63 -5zM247 638q-15 0 -26.5 5t-25.5 14q-9 6 -20 11.5t-23 5.5t-20 -9t-10 -26h-30
q1 35 17.5 57.5t43.5 22.5q15 0 28 -5.5t25 -13.5q11 -6 21 -11t20 -5q15 0 22 9t10 24h33q-1 -25 -10.5 -43t-24 -27t-30.5 -9z" />
    <glyph glyph-name="utilde" unicode="&#x169;" horiz-adv-x="380" 
d="M153 -7q-50 0 -74.5 17t-32 46.5t-7.5 67.5v371h94v-364q0 -18 2.5 -34t14 -26.5t37.5 -10.5q19 0 30 6t17 14.5t8 16.5v398h94v-495h-80l-7 57q-9 -26 -33.5 -45t-62.5 -19zM235 552q-15 0 -26.5 5t-25.5 14q-9 6 -20 11.5t-23 5.5t-20 -9t-10 -26h-30q1 35 17.5 57.5
t43.5 22.5q15 0 28 -5.5t25 -13.5q11 -6 21 -11t20 -5q15 0 22 9t10 24h33q-1 -25 -10.5 -43t-24 -27t-30.5 -9z" />
    <glyph glyph-name="Umacron" unicode="&#x16a;" horiz-adv-x="410" 
d="M205 -12q-34 0 -63 5t-50 20t-33 45t-12 81v452h96v-477q0 -27 8.5 -41.5t22.5 -19.5t31 -5t31 5t22.5 19.5t8.5 41.5v477h95v-451q0 -51 -11.5 -81.5t-32.5 -45.5t-50 -20t-63 -5zM106 649v48h198v-48h-198z" />
    <glyph glyph-name="umacron" unicode="&#x16b;" horiz-adv-x="380" 
d="M153 -7q-50 0 -74.5 17t-32 46.5t-7.5 67.5v371h94v-364q0 -18 2.5 -34t14 -26.5t37.5 -10.5q19 0 30 6t17 14.5t8 16.5v398h94v-495h-80l-7 57q-9 -26 -33.5 -45t-62.5 -19zM91 563v48h198v-48h-198z" />
    <glyph glyph-name="Ubreve" unicode="&#x16c;" horiz-adv-x="410" 
d="M205 -12q-34 0 -63 5t-50 20t-33 45t-12 81v452h96v-477q0 -27 8.5 -41.5t22.5 -19.5t31 -5t31 5t22.5 19.5t8.5 41.5v477h95v-451q0 -51 -11.5 -81.5t-32.5 -45.5t-50 -20t-63 -5zM203 631q-43 0 -66 16t-31.5 38.5t-9.5 40.5h53q2 -25 17.5 -37t36.5 -12
q23 0 38.5 11.5t17.5 37.5h53q-1 -23 -12 -45t-34.5 -36t-62.5 -14z" />
    <glyph glyph-name="ubreve" unicode="&#x16d;" horiz-adv-x="380" 
d="M153 -7q-50 0 -74.5 17t-32 46.5t-7.5 67.5v371h94v-364q0 -18 2.5 -34t14 -26.5t37.5 -10.5q19 0 30 6t17 14.5t8 16.5v398h94v-495h-80l-7 57q-9 -26 -33.5 -45t-62.5 -19zM189 546q-43 0 -66 16t-31.5 38.5t-9.5 40.5h53q2 -25 17.5 -37t36.5 -12q23 0 38.5 11.5
t17.5 37.5h53q-1 -23 -12 -45t-34.5 -36t-62.5 -14z" />
    <glyph glyph-name="Uring" unicode="&#x16e;" horiz-adv-x="410" 
d="M205 -12q-34 0 -63 5t-50 20t-33 45t-12 81v452h96v-477q0 -27 8.5 -41.5t22.5 -19.5t31 -5t31 5t22.5 19.5t8.5 41.5v477h95v-451q0 -51 -11.5 -81.5t-32.5 -45.5t-50 -20t-63 -5zM204 618q-36 0 -59.5 23t-23.5 56t23.5 56t59.5 23q37 0 60.5 -23.5t23.5 -56.5
q0 -32 -25 -55t-59 -23zM204 658q19 0 30.5 11t11.5 27q0 19 -11.5 30t-30.5 11t-30 -11t-11 -30q0 -16 11 -27t30 -11z" />
    <glyph glyph-name="uring" unicode="&#x16f;" horiz-adv-x="380" 
d="M153 -7q-50 0 -74.5 17t-32 46.5t-7.5 67.5v371h94v-364q0 -18 2.5 -34t14 -26.5t37.5 -10.5q19 0 30 6t17 14.5t8 16.5v398h94v-495h-80l-7 57q-9 -26 -33.5 -45t-62.5 -19zM189 542q-36 0 -59.5 23t-23.5 56t23.5 56t59.5 23q37 0 60.5 -23.5t23.5 -56.5q0 -32 -25 -55
t-59 -23zM189 582q19 0 30.5 11t11.5 27q0 19 -11.5 30t-30.5 11t-30 -11t-11 -30q0 -16 11 -27t30 -11z" />
    <glyph glyph-name="Uhungarumlaut" unicode="&#x170;" horiz-adv-x="410" 
d="M205 -12q-34 0 -63 5t-50 20t-33 45t-12 81v452h96v-477q0 -27 8.5 -41.5t22.5 -19.5t31 -5t31 5t22.5 19.5t8.5 41.5v477h95v-451q0 -51 -11.5 -81.5t-32.5 -45.5t-50 -20t-63 -5zM132 629l21 97h76l-59 -97h-38zM217 629l32 97h76l-64 -97h-44z" />
    <glyph glyph-name="uhungarumlaut" unicode="&#x171;" horiz-adv-x="380" 
d="M153 -7q-50 0 -74.5 17t-32 46.5t-7.5 67.5v371h94v-364q0 -18 2.5 -34t14 -26.5t37.5 -10.5q19 0 30 6t17 14.5t8 16.5v398h94v-495h-80l-7 57q-9 -26 -33.5 -45t-62.5 -19zM126 547l21 97h76l-59 -97h-38zM211 547l32 97h76l-64 -97h-44z" />
    <glyph glyph-name="Uogonek" unicode="&#x172;" horiz-adv-x="410" 
d="M205 -12q-34 0 -63 5t-50 20t-33 45t-12 81v452h96v-477q0 -27 8.5 -41.5t22.5 -19.5t31 -5t31 5t22.5 19.5t8.5 41.5v477h95v-451q0 -51 -11.5 -81.5t-32.5 -45.5t-50 -20t-63 -5zM217 -141q-34 0 -55.5 18.5t-21.5 43.5q0 28 21.5 51t52.5 29l41 -1q-27 -10 -40 -29
t-13 -37q0 -19 12.5 -29t25.5 -10q8 0 14 2l9 3l12 -26q-6 -4 -19.5 -9.5t-38.5 -5.5z" />
    <glyph glyph-name="uogonek" unicode="&#x173;" horiz-adv-x="380" 
d="M153 -7q-50 0 -74.5 17t-32 46.5t-7.5 67.5v371h94v-364q0 -18 2.5 -34t14 -26.5t37.5 -10.5q19 0 30 6t17 14.5t8 16.5v398h94v-495h-80l-7 57q-9 -26 -33.5 -45t-62.5 -19zM299 -141q-34 0 -55.5 18.5t-21.5 43.5q0 28 21.5 51t52.5 29l41 -1q-27 -10 -40 -29t-13 -37
q0 -19 12.5 -29t25.5 -10q8 0 14 2l9 3l12 -26q-6 -4 -19.5 -9.5t-38.5 -5.5z" />
    <glyph glyph-name="Wcircumflex" unicode="&#x174;" horiz-adv-x="579" 
d="M107 0l-91 591h98l63 -465l73 465h79l71 -465l65 465h98l-91 -591h-111l-72 384l-70 -384h-112zM168 630l93 96h56l94 -95h-65l-56 47l-55 -48h-67z" />
    <glyph glyph-name="wcircumflex" unicode="&#x175;" horiz-adv-x="569" 
d="M114 0l-106 495h89l72 -380l71 380h90l76 -380l66 380h89l-104 -495h-108l-64 313l-63 -313h-108zM164 546l92 100h56l93 -100h-63l-57 53l-57 -53h-64z" />
    <glyph glyph-name="Ycircumflex" unicode="&#x176;" horiz-adv-x="345" 
d="M122 0v254l-110 337h95l62 -202l5 -31l6 31l65 202h89l-116 -342v-249h-96zM55 630l93 96h56l94 -95h-65l-56 47l-55 -48h-67z" />
    <glyph glyph-name="ycircumflex" unicode="&#x177;" horiz-adv-x="337" 
d="M88 -117q-26 0 -48 4t-35 7v51q6 -1 16.5 -3.5t24.5 -2.5t31 4.5t25 26.5q4 9 8.5 20.5t1.5 26.5l-107 478h97l73 -403v0l71 403h89l-101 -461q-16 -79 -51 -115t-95 -36zM48 546l92 100h56l93 -100h-63l-57 53l-57 -53h-64z" />
    <glyph glyph-name="Ydieresis" unicode="&#x178;" horiz-adv-x="345" 
d="M122 0v254l-110 337h95l62 -202l5 -31l6 31l65 202h89l-116 -342v-249h-96zM121 636q-18 0 -30 12t-12 29t12 28.5t30 11.5t29.5 -11.5t11.5 -28.5t-11.5 -29t-29.5 -12zM232 636q-18 0 -30 12t-12 29t12 28.5t30 11.5t30 -11.5t12 -28.5t-12 -29t-30 -12z" />
    <glyph glyph-name="Zacute" unicode="&#x179;" horiz-adv-x="288" 
d="M16 0v62l148 461h-137v68h246v-50l-154 -473h154v-68h-257zM100 634l79 90h89l-113 -90h-55z" />
    <glyph glyph-name="zacute" unicode="&#x17a;" horiz-adv-x="277" 
d="M11 0v37l147 396h-135v62h242v-41l-145 -388h145v-66h-254zM99 547l57 97h87l-90 -97h-54z" />
    <glyph glyph-name="Zdotaccent" unicode="&#x17b;" horiz-adv-x="288" 
d="M16 0v62l148 461h-137v68h246v-50l-154 -473h154v-68h-257zM155 639q-20 0 -33.5 13t-13.5 32t13.5 32t33.5 13q19 0 33.5 -13t14.5 -32t-14.5 -32t-33.5 -13z" />
    <glyph glyph-name="zdotaccent" unicode="&#x17c;" horiz-adv-x="277" 
d="M11 0v37l147 396h-135v62h242v-41l-145 -388h145v-66h-254zM139 553q-20 0 -33.5 13t-13.5 32t13.5 32t33.5 13q19 0 33.5 -13t14.5 -32t-14.5 -32t-33.5 -13z" />
    <glyph glyph-name="Zcaron" unicode="&#x17d;" horiz-adv-x="288" 
d="M16 0v62l148 461h-137v68h246v-50l-154 -473h154v-68h-257zM126 630l-91 92h67l53 -44l53 44h66l-92 -92h-56z" />
    <glyph glyph-name="zcaron" unicode="&#x17e;" horiz-adv-x="277" 
d="M11 0v37l147 396h-135v62h242v-41l-145 -388h145v-66h-254zM111 546l-93 100h65l56 -53l57 53h63l-93 -100h-55z" />
    <glyph glyph-name="longs" unicode="&#x17f;" horiz-adv-x="247" 
d="M38 -144q-20 -1 -41.5 0.5t-38.5 4.5v50l30 -1q9 -1 18.5 0.5t19.5 3.5q16 4 24 18t8 29v422h-37v57h37v88q0 43 16.5 66t45.5 31t65 8q27 0 51 -3.5t46 -9.5l-9 -55q-21 7 -39.5 9t-41.5 2q-24 0 -31.5 -20.5t-7.5 -41.5v-519q0 -48 -14.5 -78t-40 -44.5t-60.5 -16.5z
" />
    <glyph glyph-name="uni018F" unicode="&#x18f;" horiz-adv-x="398" 
d="M195 -12q-47 0 -83 11t-55.5 45t-19.5 105v99h96v-133q0 -30 8 -45t22 -20t32 -5q19 0 32.5 5t21.5 20t8 45v355q0 31 -8 45.5t-21.5 19.5t-32.5 5q-18 0 -32 -5t-22 -19.5t-8 -45.5v-119h-96v116q0 53 19.5 81.5t55 40t82.5 11.5q48 0 84 -11t57 -39.5t21 -82.5v-319
q0 -69 -20.5 -103.5t-56.5 -45.5t-84 -11zM39 221v48h234v-48h-234z" />
    <glyph glyph-name="florin" unicode="&#x192;" horiz-adv-x="342" 
d="M-8 -145q-13 0 -30.5 1t-31.5 2t-19 2l6 56l56 -5q27 -1 42 7.5t23 29t12 56.5l46 387h-55l5 52h55l12 79q9 57 36.5 82t67.5 25q10 0 26 -0.5t33.5 -1t32 -1.5t22.5 -2l-7 -55q-7 2 -27.5 4t-43.5 2q-28 0 -38 -21t-13 -46l-9 -65h104l-5 -52h-104l-49 -414
q-8 -61 -44 -91.5t-103 -30.5z" />
    <glyph glyph-name="Ohorn" unicode="&#x1a0;" horiz-adv-x="403" 
d="M200 -12q-47 0 -82.5 11t-55.5 45.5t-20 103.5v319q0 54 20 82.5t56 39.5t83 11t82.5 -11.5t56.5 -40t21 -81.5v-318q0 -71 -21 -105t-57 -45t-83 -11zM200 45q19 0 34 5.5t23 20.5t8 44v355q0 28 -8 43.5t-23 21t-34 5.5t-33.5 -5.5t-22.5 -21t-8 -43.5v-355
q0 -29 8 -44t22.5 -20.5t33.5 -5.5zM251 548l-2 43h15q47 0 47 46v17h62v-15q0 -48 -31 -69.5t-91 -21.5z" />
    <glyph glyph-name="ohorn" unicode="&#x1a1;" horiz-adv-x="364" 
d="M183 -8q-49 0 -82.5 12.5t-50 46.5t-16.5 98v218q0 75 36 106t113 31q76 0 112 -30.5t36 -106.5v-218q0 -64 -16.5 -98t-49.5 -46.5t-82 -12.5zM183 49q29 0 41.5 15.5t12.5 55.5v255q0 39 -12 55t-42 16q-29 0 -42 -15.5t-13 -55.5v-255q0 -40 13 -55.5t42 -15.5z
M237 451l-2 43h15q47 0 47 46v17h62v-15q0 -48 -31 -69.5t-91 -21.5z" />
    <glyph glyph-name="Uhorn" unicode="&#x1af;" horiz-adv-x="410" 
d="M205 -12q-34 0 -63 5t-50 20t-33 45t-12 81v452h96v-477q0 -27 8.5 -41.5t22.5 -19.5t31 -5t31 5t22.5 19.5t8.5 41.5v477h95v-451q0 -51 -11.5 -81.5t-32.5 -45.5t-50 -20t-63 -5zM287 548l-2 43h15q47 0 47 46v17h62v-15q0 -48 -31 -69.5t-91 -21.5z" />
    <glyph glyph-name="uhorn" unicode="&#x1b0;" horiz-adv-x="380" 
d="M153 -7q-50 0 -74.5 17t-32 46.5t-7.5 67.5v371h94v-364q0 -18 2.5 -34t14 -26.5t37.5 -10.5q19 0 30 6t17 14.5t8 16.5v398h94v-495h-80l-7 57q-9 -26 -33.5 -45t-62.5 -19zM267 451l-2 43h15q47 0 47 46v17h62v-15q0 -48 -31 -69.5t-91 -21.5z" />
    <glyph glyph-name="uni01C4" unicode="&#x1c4;" horiz-adv-x="699" 
d="M50 0v591h196q40 0 67 -12t41.5 -37t14.5 -65v-350q0 -49 -17 -77t-47.5 -39t-71.5 -11h-183zM149 51h69q25 0 40 14.5t15 54.5v346q0 40 -15 55t-40 15h-69v-485zM427 0v62l148 461h-137v68h246v-50l-154 -473h154v-68h-257zM537 630l-91 92h67l53 -44l53 44h66l-92 -92
h-56z" />
    <glyph glyph-name="uni01C5" unicode="&#x1c5;" horiz-adv-x="688" 
d="M50 0v591h196q40 0 67 -12t41.5 -37t14.5 -65v-350q0 -49 -17 -77t-47.5 -39t-71.5 -11h-183zM149 51h69q25 0 40 14.5t15 54.5v346q0 40 -15 55t-40 15h-69v-485zM422 0v37l147 396h-135v62h242v-41l-145 -388h145v-66h-254zM522 546l-93 100h65l56 -53l57 53h63
l-93 -100h-55z" />
    <glyph glyph-name="uni01C6" unicode="&#x1c6;" horiz-adv-x="652" 
d="M161 -7q-34 0 -58 7.5t-39.5 24t-22.5 45t-7 70.5v243q0 31 7.5 53.5t21.5 37t35 21.5t47 7q41 0 61.5 -12t30.5 -28v168h94v-630h-64l-10 47q-5 -11 -16 -23.5t-30 -21.5t-50 -9zM181 47q20 0 31.5 7.5t16.5 20t6.5 27.5t1.5 31v280q-2 6 -7.5 13.5t-17 13t-30.5 5.5
q-20 0 -31 -5.5t-16 -16t-6 -23.5t-1 -28v-252q0 -20 2.5 -36.5t14 -26.5t36.5 -10zM385 0v37l147 396h-135v62h242v-41l-145 -388h145v-66h-254zM485 546l-93 100h65l56 -53l57 53h63l-93 -100h-55z" />
    <glyph glyph-name="uni01C7" unicode="&#x1c7;" horiz-adv-x="532" 
d="M50 0v591h94v-525h147v-66h-241zM349 -1h-22t-23 1v67l32 -1q31 0 42 11t11 44v470h96v-451q0 -54 -12 -85t-41.5 -43.5t-82.5 -12.5z" />
    <glyph glyph-name="uni01C8" unicode="&#x1c8;" horiz-adv-x="476" 
d="M50 0v591h94v-525h147v-66h-241zM274 -112q-6 1 -18 1.5t-16 1.5v51q7 -1 18 -0.5t18 0.5q31 1 48 15t17 43v495h94v-469q0 -60 -22.5 -90.5t-59 -40t-79.5 -7.5zM387 553q-20 0 -33.5 13t-13.5 32t13.5 32t33.5 13q19 0 33.5 -13t14.5 -32t-14.5 -32t-33.5 -13z" />
    <glyph glyph-name="uni01C9" unicode="&#x1c9;" horiz-adv-x="358" 
d="M43 0v633h94v-633h-94zM156 -112q-6 1 -18 1.5t-16 1.5v51q7 -1 18 -0.5t18 0.5q31 1 48 15t17 43v495h94v-469q0 -60 -22.5 -90.5t-59 -40t-79.5 -7.5zM269 553q-20 0 -33.5 13t-13.5 32t13.5 32t33.5 13q19 0 33.5 -13t14.5 -32t-14.5 -32t-33.5 -13z" />
    <glyph glyph-name="uni01CA" unicode="&#x1ca;" horiz-adv-x="648" 
d="M50 0v591h83l147 -398v398h85v-591h-84l-146 377v-377h-85zM466 -1h-22t-23 1v67l32 -1q31 0 42 11t11 44v470h96v-451q0 -54 -12 -85t-41.5 -43.5t-82.5 -12.5z" />
    <glyph glyph-name="uni01CB" unicode="&#x1cb;" horiz-adv-x="593" 
d="M50 0v591h83l147 -398v398h85v-591h-84l-146 377v-377h-85zM391 -112q-6 1 -18 1.5t-16 1.5v51q7 -1 18 -0.5t18 0.5q31 1 48 15t17 43v495h94v-469q0 -60 -22.5 -90.5t-59 -40t-79.5 -7.5zM504 553q-20 0 -33.5 13t-13.5 32t13.5 32t33.5 13q19 0 33.5 -13t14.5 -32
t-14.5 -32t-33.5 -13z" />
    <glyph glyph-name="uni01CC" unicode="&#x1cc;" horiz-adv-x="555" 
d="M43 0v495h79l9 -56q9 30 36.5 48t59.5 18q49 0 73.5 -17.5t32.5 -47t8 -67.5v-373h-94v366q0 14 -1 26.5t-6 22.5t-16 16t-32 6q-17 0 -28.5 -6t-17.5 -14.5t-9 -16.5v-400h-94zM353 -112q-6 1 -18 1.5t-16 1.5v51q7 -1 18 -0.5t18 0.5q31 1 48 15t17 43v495h94v-469
q0 -60 -22.5 -90.5t-59 -40t-79.5 -7.5zM466 553q-20 0 -33.5 13t-13.5 32t13.5 32t33.5 13q19 0 33.5 -13t14.5 -32t-14.5 -32t-33.5 -13z" />
    <glyph glyph-name="uni01CD" unicode="&#x1cd;" 
d="M11 0l115 591h134l113 -591h-106l-24 120h-108l-22 -120h-102zM137 169h105l-52 329zM163 630l-91 92h67l53 -44l53 44h66l-92 -92h-56z" />
    <glyph glyph-name="uni01CE" unicode="&#x1ce;" horiz-adv-x="366" 
d="M132 -8q-25 0 -47.5 7t-38 29.5t-15.5 69.5v59q0 49 28.5 78.5t85.5 52.5q33 14 52.5 25t28.5 26t9 41v25q0 19 -7.5 29t-19 14.5t-26.5 4.5q-33 0 -43.5 -20t-10.5 -64v-42h-85v51q0 37 10 65.5t40 45t89 16.5q61 0 92.5 -12t43.5 -36.5t12 -62.5v-394h-94v57
q-10 -31 -39.5 -48t-64.5 -17zM171 55q34 0 48.5 24.5t14.5 68.5v139q-7 -12 -25 -22t-35 -21q-25 -15 -38 -31.5t-13 -45.5v-47q0 -27 6.5 -41.5t18 -19t23.5 -4.5zM160 546l-93 100h65l56 -53l57 53h63l-93 -100h-55z" />
    <glyph glyph-name="uni01CF" unicode="&#x1cf;" horiz-adv-x="195" 
d="M50 0v591h95v-591h-95zM69 630l-91 92h67l53 -44l53 44h66l-92 -92h-56z" />
    <glyph glyph-name="uni01D0" unicode="&#x1d0;" horiz-adv-x="180" 
d="M43 0v495h94v-495h-94zM62 546l-93 100h65l56 -53l57 53h63l-93 -100h-55z" />
    <glyph glyph-name="uni01D1" unicode="&#x1d1;" horiz-adv-x="403" 
d="M200 -12q-47 0 -82.5 11t-55.5 45.5t-20 103.5v319q0 54 20 82.5t56 39.5t83 11t82.5 -11.5t56.5 -40t21 -81.5v-318q0 -71 -21 -105t-57 -45t-83 -11zM200 45q19 0 34 5.5t23 20.5t8 44v355q0 28 -8 43.5t-23 21t-34 5.5t-33.5 -5.5t-22.5 -21t-8 -43.5v-355
q0 -29 8 -44t22.5 -20.5t33.5 -5.5zM173 630l-91 92h67l53 -44l53 44h66l-92 -92h-56z" />
    <glyph glyph-name="uni01D2" unicode="&#x1d2;" horiz-adv-x="364" 
d="M183 -8q-49 0 -82.5 12.5t-50 46.5t-16.5 98v218q0 75 36 106t113 31q76 0 112 -30.5t36 -106.5v-218q0 -64 -16.5 -98t-49.5 -46.5t-82 -12.5zM183 49q29 0 41.5 15.5t12.5 55.5v255q0 39 -12 55t-42 16q-29 0 -42 -15.5t-13 -55.5v-255q0 -40 13 -55.5t42 -15.5z
M154 546l-93 100h65l56 -53l57 53h63l-93 -100h-55z" />
    <glyph glyph-name="uni01D3" unicode="&#x1d3;" horiz-adv-x="410" 
d="M205 -12q-34 0 -63 5t-50 20t-33 45t-12 81v452h96v-477q0 -27 8.5 -41.5t22.5 -19.5t31 -5t31 5t22.5 19.5t8.5 41.5v477h95v-451q0 -51 -11.5 -81.5t-32.5 -45.5t-50 -20t-63 -5zM176 630l-91 92h67l53 -44l53 44h66l-92 -92h-56z" />
    <glyph glyph-name="uni01D4" unicode="&#x1d4;" horiz-adv-x="380" 
d="M153 -7q-50 0 -74.5 17t-32 46.5t-7.5 67.5v371h94v-364q0 -18 2.5 -34t14 -26.5t37.5 -10.5q19 0 30 6t17 14.5t8 16.5v398h94v-495h-80l-7 57q-9 -26 -33.5 -45t-62.5 -19zM162 546l-93 100h65l56 -53l57 53h63l-93 -100h-55z" />
    <glyph glyph-name="uni01D5" unicode="&#x1d5;" horiz-adv-x="410" 
d="M205 -12q-34 0 -63 5t-50 20t-33 45t-12 81v452h96v-477q0 -27 8.5 -41.5t22.5 -19.5t31 -5t31 5t22.5 19.5t8.5 41.5v477h95v-451q0 -51 -11.5 -81.5t-32.5 -45.5t-50 -20t-63 -5zM149 636q-18 0 -30 12t-12 29t12 28.5t30 11.5t29.5 -11.5t11.5 -28.5t-11.5 -29
t-29.5 -12zM260 636q-18 0 -30 12t-12 29t12 28.5t30 11.5t30 -11.5t12 -28.5t-12 -29t-30 -12zM107 742v48h198v-48h-198z" />
    <glyph glyph-name="uni01D6" unicode="&#x1d6;" horiz-adv-x="380" 
d="M153 -7q-50 0 -74.5 17t-32 46.5t-7.5 67.5v371h94v-364q0 -18 2.5 -34t14 -26.5t37.5 -10.5q19 0 30 6t17 14.5t8 16.5v398h94v-495h-80l-7 57q-9 -26 -33.5 -45t-62.5 -19zM134 551q-18 0 -30 12t-12 29t12 28.5t30 11.5t29.5 -11.5t11.5 -28.5t-11.5 -29t-29.5 -12z
M245 551q-18 0 -30 12t-12 29t12 28.5t30 11.5t30 -11.5t12 -28.5t-12 -29t-30 -12zM91 656v48h198v-48h-198z" />
    <glyph glyph-name="uni01D7" unicode="&#x1d7;" horiz-adv-x="410" 
d="M205 -12q-34 0 -63 5t-50 20t-33 45t-12 81v452h96v-477q0 -27 8.5 -41.5t22.5 -19.5t31 -5t31 5t22.5 19.5t8.5 41.5v477h95v-451q0 -51 -11.5 -81.5t-32.5 -45.5t-50 -20t-63 -5zM149 636q-18 0 -30 12t-12 29t12 28.5t30 11.5t29.5 -11.5t11.5 -28.5t-11.5 -29
t-29.5 -12zM260 636q-18 0 -30 12t-12 29t12 28.5t30 11.5t30 -11.5t12 -28.5t-12 -29t-30 -12zM151 735l79 90h89l-113 -90h-55z" />
    <glyph glyph-name="uni01D8" unicode="&#x1d8;" horiz-adv-x="380" 
d="M153 -7q-50 0 -74.5 17t-32 46.5t-7.5 67.5v371h94v-364q0 -18 2.5 -34t14 -26.5t37.5 -10.5q19 0 30 6t17 14.5t8 16.5v398h94v-495h-80l-7 57q-9 -26 -33.5 -45t-62.5 -19zM134 551q-18 0 -30 12t-12 29t12 28.5t30 11.5t29.5 -11.5t11.5 -28.5t-11.5 -29t-29.5 -12z
M245 551q-18 0 -30 12t-12 29t12 28.5t30 11.5t30 -11.5t12 -28.5t-12 -29t-30 -12zM150 643l57 97h87l-90 -97h-54z" />
    <glyph glyph-name="uni01D9" unicode="&#x1d9;" horiz-adv-x="410" 
d="M205 -12q-34 0 -63 5t-50 20t-33 45t-12 81v452h96v-477q0 -27 8.5 -41.5t22.5 -19.5t31 -5t31 5t22.5 19.5t8.5 41.5v477h95v-451q0 -51 -11.5 -81.5t-32.5 -45.5t-50 -20t-63 -5zM149 636q-18 0 -30 12t-12 29t12 28.5t30 11.5t29.5 -11.5t11.5 -28.5t-11.5 -29
t-29.5 -12zM260 636q-18 0 -30 12t-12 29t12 28.5t30 11.5t30 -11.5t12 -28.5t-12 -29t-30 -12zM177 731l-91 92h67l53 -44l53 44h66l-92 -92h-56z" />
    <glyph glyph-name="uni01DA" unicode="&#x1da;" horiz-adv-x="380" 
d="M153 -7q-50 0 -74.5 17t-32 46.5t-7.5 67.5v371h94v-364q0 -18 2.5 -34t14 -26.5t37.5 -10.5q19 0 30 6t17 14.5t8 16.5v398h94v-495h-80l-7 57q-9 -26 -33.5 -45t-62.5 -19zM134 551q-18 0 -30 12t-12 29t12 28.5t30 11.5t29.5 -11.5t11.5 -28.5t-11.5 -29t-29.5 -12z
M245 551q-18 0 -30 12t-12 29t12 28.5t30 11.5t30 -11.5t12 -28.5t-12 -29t-30 -12zM162 642l-93 100h65l56 -53l57 53h63l-93 -100h-55z" />
    <glyph glyph-name="uni01DB" unicode="&#x1db;" horiz-adv-x="410" 
d="M205 -12q-34 0 -63 5t-50 20t-33 45t-12 81v452h96v-477q0 -27 8.5 -41.5t22.5 -19.5t31 -5t31 5t22.5 19.5t8.5 41.5v477h95v-451q0 -51 -11.5 -81.5t-32.5 -45.5t-50 -20t-63 -5zM149 636q-18 0 -30 12t-12 29t12 28.5t30 11.5t29.5 -11.5t11.5 -28.5t-11.5 -29
t-29.5 -12zM260 636q-18 0 -30 12t-12 29t12 28.5t30 11.5t30 -11.5t12 -28.5t-12 -29t-30 -12zM199 735l-107 87h91l76 -87h-60z" />
    <glyph glyph-name="uni01DC" unicode="&#x1dc;" horiz-adv-x="380" 
d="M153 -7q-50 0 -74.5 17t-32 46.5t-7.5 67.5v371h94v-364q0 -18 2.5 -34t14 -26.5t37.5 -10.5q19 0 30 6t17 14.5t8 16.5v398h94v-495h-80l-7 57q-9 -26 -33.5 -45t-62.5 -19zM134 551q-18 0 -30 12t-12 29t12 28.5t30 11.5t29.5 -11.5t11.5 -28.5t-11.5 -29t-29.5 -12z
M245 551q-18 0 -30 12t-12 29t12 28.5t30 11.5t30 -11.5t12 -28.5t-12 -29t-30 -12zM180 643l-91 97h87l58 -97h-54z" />
    <glyph glyph-name="Gcaron" unicode="&#x1e6;" horiz-adv-x="400" 
d="M173 -11q-34 0 -64 10.5t-48.5 42t-18.5 94.5v330q0 54 20 82.5t56 39t83 10.5t83 -11t56.5 -39.5t20.5 -81.5v-80h-93v84q0 30 -8.5 45t-23 20t-34.5 5q-18 0 -33 -5t-23.5 -20t-8.5 -45v-355q0 -30 8.5 -45t23.5 -20t33 -5q29 0 47.5 17.5t18.5 52.5v120h-59v55h152
v-290h-72l-5 50q-2 -4 -5 -8.5l-5 -7.5q-12 -18 -35.5 -31.5t-65.5 -13.5zM171 630l-91 92h67l53 -44l53 44h66l-92 -92h-56z" />
    <glyph glyph-name="gcaron" unicode="&#x1e7;" horiz-adv-x="368" 
d="M179 -119q-13 0 -31.5 1.5t-35.5 3t-29.5 3t-15.5 2.5v51q13 -2 37.5 -4.5t42.5 -2.5q15 0 30.5 2.5t29 10.5t21.5 25t8 46v70q-5 -15 -15.5 -29.5t-29.5 -24t-50 -9.5q-22 0 -41.5 5t-34 19.5t-23 43t-8.5 74.5v212q0 64 26 94.5t82 30.5q29 0 49.5 -8t34 -22t19.5 -34
l-13 -1l15 55h83v-434q0 -36 -7.5 -69t-24.5 -57.5t-46 -39t-73 -14.5zM179 83q24 0 36 11.5t16.5 31t4.5 40.5v243q-3 7 -9.5 14.5t-17.5 12.5t-30 5q-27 0 -39 -14t-12 -51v-232q0 -21 5 -33t13.5 -18t17.5 -8t15 -2zM159 546l-93 100h65l56 -53l57 53h63l-93 -100h-55z
" />
    <glyph glyph-name="uni01EA" unicode="&#x1ea;" horiz-adv-x="403" 
d="M200 -12q-47 0 -82.5 11t-55.5 45.5t-20 103.5v319q0 54 20 82.5t56 39.5t83 11t82.5 -11.5t56.5 -40t21 -81.5v-318q0 -71 -21 -105t-57 -45t-83 -11zM200 45q19 0 34 5.5t23 20.5t8 44v355q0 28 -8 43.5t-23 21t-34 5.5t-33.5 -5.5t-22.5 -21t-8 -43.5v-355
q0 -29 8 -44t22.5 -20.5t33.5 -5.5zM215 -141q-34 0 -55.5 18.5t-21.5 43.5q0 28 21.5 51t52.5 29l41 -1q-27 -10 -40 -29t-13 -37q0 -19 12.5 -29t25.5 -10q8 0 14 2l9 3l12 -26q-6 -4 -19.5 -9.5t-38.5 -5.5z" />
    <glyph glyph-name="uni01EB" unicode="&#x1eb;" horiz-adv-x="364" 
d="M183 -8q-49 0 -82.5 12.5t-50 46.5t-16.5 98v218q0 75 36 106t113 31q76 0 112 -30.5t36 -106.5v-218q0 -64 -16.5 -98t-49.5 -46.5t-82 -12.5zM183 49q29 0 41.5 15.5t12.5 55.5v255q0 39 -12 55t-42 16q-29 0 -42 -15.5t-13 -55.5v-255q0 -40 13 -55.5t42 -15.5z
M190 -141q-34 0 -55.5 18.5t-21.5 43.5q0 28 21.5 51t52.5 29l41 -1q-27 -10 -40 -29t-13 -37q0 -19 12.5 -29t25.5 -10q8 0 14 2l9 3l12 -26q-6 -4 -19.5 -9.5t-38.5 -5.5z" />
    <glyph glyph-name="Aringacute" unicode="&#x1fa;" 
d="M11 0l115 591h134l113 -591h-106l-24 120h-108l-22 -120h-102zM137 169h105l-52 329zM192 585q-36 0 -59.5 23t-23.5 56t23.5 56t59.5 23q37 0 60.5 -23.5t23.5 -56.5q0 -32 -25 -55t-59 -23zM192 625q19 0 30.5 11t11.5 27q0 19 -11.5 30t-30.5 11t-30 -11t-11 -30
q0 -16 11 -27t30 -11zM153 763l79 90h89l-113 -90h-55z" />
    <glyph glyph-name="aringacute" unicode="&#x1fb;" horiz-adv-x="366" 
d="M132 -8q-25 0 -47.5 7t-38 29.5t-15.5 69.5v59q0 49 28.5 78.5t85.5 52.5q33 14 52.5 25t28.5 26t9 41v25q0 19 -7.5 29t-19 14.5t-26.5 4.5q-33 0 -43.5 -20t-10.5 -64v-42h-85v51q0 37 10 65.5t40 45t89 16.5q61 0 92.5 -12t43.5 -36.5t12 -62.5v-394h-94v57
q-10 -31 -39.5 -48t-64.5 -17zM171 55q34 0 48.5 24.5t14.5 68.5v139q-7 -12 -25 -22t-35 -21q-25 -15 -38 -31.5t-13 -45.5v-47q0 -27 6.5 -41.5t18 -19t23.5 -4.5zM187 542q-36 0 -59.5 23t-23.5 56t23.5 56t59.5 23q37 0 60.5 -23.5t23.5 -56.5q0 -32 -25 -55t-59 -23z
M187 582q19 0 30.5 11t11.5 27q0 19 -11.5 30t-30.5 11t-30 -11t-11 -30q0 -16 11 -27t30 -11zM148 721l57 97h87l-90 -97h-54z" />
    <glyph glyph-name="AEacute" unicode="&#x1fc;" horiz-adv-x="542" 
d="M4 0l187 591h318v-68h-182l3 -179h160v-75h-159l2 -203h187v-66h-291v120h-86l-37 -120h-102zM151 169h84l8 311l1 18l-3 -17zM283 634l79 90h89l-113 -90h-55z" />
    <glyph glyph-name="aeacute" unicode="&#x1fd;" horiz-adv-x="561" 
d="M132 -5q-13 0 -30 2t-33 11.5t-27 31t-11 60.5v60q0 49 30.5 77t78.5 48q33 15 54 26.5t31 26t10 37.5v30q0 19 -7.5 29t-19 14.5t-26.5 4.5q-33 0 -43.5 -20t-10.5 -64v-42h-85v51q0 37 10 65.5t40 45t89 16.5q53 0 81 -14t38.5 -39t10.5 -58v-367l-57 55
q-16 -49 -50 -68t-73 -19zM171 57q34 0 48.5 23.5t14.5 67.5v139q-7 -13 -25.5 -23t-36.5 -21q-24 -16 -36.5 -32t-12.5 -43v-46q0 -27 6.5 -41.5t18 -19t23.5 -4.5zM384 -2q-34 0 -60 4.5t-43 19t-25.5 44t-8.5 79.5v234q0 60 33.5 92.5t103.5 32.5q76 0 112 -27t36 -98
v-132h-202v-139q0 -25 4.5 -39t16.5 -19t33 -5t33 5.5t17 20.5t5 40v69h93v-31q0 -50 -9 -80.5t-27.5 -45.5t-46 -20t-65.5 -5zM330 291h109v98q0 34 -11.5 49t-43.5 15q-31 0 -42.5 -15t-11.5 -49v-98zM266 547l57 97h87l-90 -97h-54z" />
    <glyph glyph-name="Oslashacute" unicode="&#x1fe;" horiz-adv-x="419" 
d="M19 -35l333 660h46l-333 -660h-46zM205 -12q-47 0 -83 11t-56.5 45.5t-20.5 103.5v319q0 54 20.5 82.5t57 39.5t83.5 11q48 0 83 -11.5t54.5 -40t19.5 -81.5v-318q0 -71 -19.5 -105t-54.5 -45t-84 -11zM206 45q18 0 32 5t22 20t8 45v355q0 30 -8 45t-22 20t-32 5
q-19 0 -33 -5t-21.5 -20t-7.5 -45v-355q0 -30 7.5 -45t21.5 -20t33 -5zM150 634l79 90h89l-113 -90h-55z" />
    <glyph glyph-name="oslashacute" unicode="&#x1ff;" horiz-adv-x="370" 
d="M23 -36l279 556h38l-279 -556h-38zM183 -8q-55 0 -88 15.5t-47 50t-14 91.5v218q0 44 13.5 74t46.5 46t89 16t88 -16t46 -46t14 -74v-218q0 -57 -14.5 -91.5t-47 -50t-86.5 -15.5zM183 49q24 0 35.5 9.5t15 26t3.5 35.5v255q0 20 -3.5 36t-15 26t-35.5 10q-25 0 -37 -10
t-15 -26t-3 -36v-255q0 -19 3 -35.5t15 -26t37 -9.5zM142 547l57 97h87l-90 -97h-54z" />
    <glyph glyph-name="uni0200" unicode="&#x200;" 
d="M11 0l115 591h134l113 -591h-106l-24 120h-108l-22 -120h-102zM137 169h105l-52 329zM254 643h-39l-58 97h75zM168 643h-43l-64 97h76z" />
    <glyph glyph-name="uni0201" unicode="&#x201;" horiz-adv-x="366" 
d="M132 -8q-25 0 -47.5 7t-38 29.5t-15.5 69.5v59q0 49 28.5 78.5t85.5 52.5q33 14 52.5 25t28.5 26t9 41v25q0 19 -7.5 29t-19 14.5t-26.5 4.5q-33 0 -43.5 -20t-10.5 -64v-42h-85v51q0 37 10 65.5t40 45t89 16.5q61 0 92.5 -12t43.5 -36.5t12 -62.5v-394h-94v57
q-10 -31 -39.5 -48t-64.5 -17zM171 55q34 0 48.5 24.5t14.5 68.5v139q-7 -12 -25 -22t-35 -21q-25 -15 -38 -31.5t-13 -45.5v-47q0 -27 6.5 -41.5t18 -19t23.5 -4.5zM250 547h-39l-58 97h75zM164 547h-43l-64 97h76z" />
    <glyph glyph-name="uni0202" unicode="&#x202;" 
d="M193 739q44 0 66.5 -16t31 -38t9.5 -41h-52q-3 25 -18.5 37t-36.5 12q-22 0 -37.5 -11.5t-18.5 -37.5h-53q1 24 12 45.5t34.5 35.5t62.5 14zM11 0l115 591h134l113 -591h-106l-24 120h-108l-22 -120h-102zM137 169h105l-52 329z" />
    <glyph glyph-name="uni0203" unicode="&#x203;" horiz-adv-x="366" 
d="M189 643q44 0 66.5 -16t31 -38t8.5 -41h-52q-2 25 -17.5 37t-37.5 12t-37.5 -11.5t-17.5 -37.5h-53q1 24 12 45.5t34.5 35.5t62.5 14zM132 -8q-25 0 -47.5 7t-38 29.5t-15.5 69.5v59q0 49 28.5 78.5t85.5 52.5q33 14 52.5 25t28.5 26t9 41v25q0 19 -7.5 29t-19 14.5
t-26.5 4.5q-33 0 -43.5 -20t-10.5 -64v-42h-85v51q0 37 10 65.5t40 45t89 16.5q61 0 92.5 -12t43.5 -36.5t12 -62.5v-394h-94v57q-10 -31 -39.5 -48t-64.5 -17zM171 55q34 0 48.5 24.5t14.5 68.5v139q-7 -12 -25 -22t-35 -21q-25 -15 -38 -31.5t-13 -45.5v-47
q0 -27 6.5 -41.5t18 -19t23.5 -4.5z" />
    <glyph glyph-name="uni0204" unicode="&#x204;" horiz-adv-x="337" 
d="M50 0v591h266v-68h-166v-179h137v-75h-137v-203h166v-66h-266zM244 643h-39l-58 97h75zM158 643h-43l-64 97h76z" />
    <glyph glyph-name="uni0205" unicode="&#x205;" horiz-adv-x="358" 
d="M185 -8q-51 0 -84.5 11.5t-50 44.5t-16.5 99v232q0 72 36 98.5t112 26.5t112 -26.5t36 -98.5v-132h-202v-137q0 -37 11.5 -52t44.5 -15q30 0 41 14.5t11 52.5v73h94v-35q0 -65 -16.5 -99t-48.5 -45.5t-80 -11.5zM128 291h108v92q0 34 -11 49t-43 15q-31 0 -42.5 -15
t-11.5 -49v-92zM242 547h-39l-58 97h75zM156 547h-43l-64 97h76z" />
    <glyph glyph-name="uni0206" unicode="&#x206;" horiz-adv-x="337" 
d="M184 739q43 0 66 -16t31.5 -38t8.5 -41h-52q-3 25 -18.5 37t-36.5 12q-22 0 -37.5 -11.5t-18.5 -37.5h-53q1 24 12.5 45.5t34.5 35.5t63 14zM50 0v591h266v-68h-166v-179h137v-75h-137v-203h166v-66h-266z" />
    <glyph glyph-name="uni0207" unicode="&#x207;" horiz-adv-x="358" 
d="M181 643q43 0 66 -16t31.5 -38t8.5 -41h-52q-2 25 -18 37t-37 12q-22 0 -37.5 -11.5t-17.5 -37.5h-53q1 24 11.5 45.5t34.5 35.5t63 14zM185 -8q-51 0 -84.5 11.5t-50 44.5t-16.5 99v232q0 72 36 98.5t112 26.5t112 -26.5t36 -98.5v-132h-202v-137q0 -37 11.5 -52
t44.5 -15q30 0 41 14.5t11 52.5v73h94v-35q0 -65 -16.5 -99t-48.5 -45.5t-80 -11.5zM128 291h108v92q0 34 -11 49t-43 15q-31 0 -42.5 -15t-11.5 -49v-92z" />
    <glyph glyph-name="uni0208" unicode="&#x208;" horiz-adv-x="195" 
d="M50 0v591h95v-591h-95zM160 643h-39l-58 97h75zM74 643h-43l-64 97h76z" />
    <glyph glyph-name="uni0209" unicode="&#x209;" horiz-adv-x="180" 
d="M43 0v495h94v-495h-94zM152 547h-39l-58 97h75zM66 547h-43l-64 97h76z" />
    <glyph glyph-name="uni020A" unicode="&#x20a;" horiz-adv-x="195" 
d="M99 739q44 0 66.5 -16t31 -38t9.5 -41h-53q-2 25 -17.5 37t-37.5 12t-37.5 -11.5t-17.5 -37.5h-53q1 24 12 45.5t34.5 35.5t62.5 14zM50 0v591h95v-591h-95z" />
    <glyph glyph-name="uni020B" unicode="&#x20b;" horiz-adv-x="180" 
d="M91 643q44 0 66.5 -16t31 -38t9.5 -41h-52q-3 25 -18.5 37t-36.5 12q-22 0 -37.5 -11.5t-18.5 -37.5h-53q1 24 12 45.5t34.5 35.5t62.5 14zM43 0v495h94v-495h-94z" />
    <glyph glyph-name="uni020C" unicode="&#x20c;" horiz-adv-x="403" 
d="M200 -12q-47 0 -82.5 11t-55.5 45.5t-20 103.5v319q0 54 20 82.5t56 39.5t83 11t82.5 -11.5t56.5 -40t21 -81.5v-318q0 -71 -21 -105t-57 -45t-83 -11zM200 45q19 0 34 5.5t23 20.5t8 44v355q0 28 -8 43.5t-23 21t-34 5.5t-33.5 -5.5t-22.5 -21t-8 -43.5v-355
q0 -29 8 -44t22.5 -20.5t33.5 -5.5zM264 643h-39l-58 97h75zM178 643h-43l-64 97h76z" />
    <glyph glyph-name="uni020D" unicode="&#x20d;" horiz-adv-x="364" 
d="M183 -8q-49 0 -82.5 12.5t-50 46.5t-16.5 98v218q0 75 36 106t113 31q76 0 112 -30.5t36 -106.5v-218q0 -64 -16.5 -98t-49.5 -46.5t-82 -12.5zM183 49q29 0 41.5 15.5t12.5 55.5v255q0 39 -12 55t-42 16q-29 0 -42 -15.5t-13 -55.5v-255q0 -40 13 -55.5t42 -15.5z
M244 547h-39l-58 97h75zM158 547h-43l-64 97h76z" />
    <glyph glyph-name="uni020E" unicode="&#x20e;" horiz-adv-x="403" 
d="M203 739q44 0 66.5 -16t31 -38t8.5 -41h-52q-2 25 -17.5 37t-37.5 12t-37.5 -11.5t-17.5 -37.5h-53q1 24 12 45.5t34.5 35.5t62.5 14zM200 -12q-47 0 -82.5 11t-55.5 45.5t-20 103.5v319q0 54 20 82.5t56 39.5t83 11t82.5 -11.5t56.5 -40t21 -81.5v-318q0 -71 -21 -105
t-57 -45t-83 -11zM200 45q19 0 34 5.5t23 20.5t8 44v355q0 28 -8 43.5t-23 21t-34 5.5t-33.5 -5.5t-22.5 -21t-8 -43.5v-355q0 -29 8 -44t22.5 -20.5t33.5 -5.5z" />
    <glyph glyph-name="uni020F" unicode="&#x20f;" horiz-adv-x="364" 
d="M183 643q44 0 66.5 -16t31 -38t9.5 -41h-53q-2 25 -17.5 37t-36.5 12q-22 0 -38 -11.5t-18 -37.5h-53q1 24 12 45.5t34.5 35.5t62.5 14zM183 -8q-49 0 -82.5 12.5t-50 46.5t-16.5 98v218q0 75 36 106t113 31q76 0 112 -30.5t36 -106.5v-218q0 -64 -16.5 -98t-49.5 -46.5
t-82 -12.5zM183 49q29 0 41.5 15.5t12.5 55.5v255q0 39 -12 55t-42 16q-29 0 -42 -15.5t-13 -55.5v-255q0 -40 13 -55.5t42 -15.5z" />
    <glyph glyph-name="uni0210" unicode="&#x210;" horiz-adv-x="417" 
d="M50 0v591h204q56 0 86.5 -25t30.5 -74v-94q0 -49 -27 -79.5t-80 -33.5v0q34 -3 48.5 -22t26.5 -59l57 -204h-106l-47 197q-7 25 -16 44t-29 19h-49v-260h-99zM149 327h64q35 0 49.5 18t14.5 55v75q0 33 -13.5 48t-41.5 15h-73v-211zM271 643h-39l-58 97h75zM185 643h-43
l-64 97h76z" />
    <glyph glyph-name="uni0211" unicode="&#x211;" horiz-adv-x="271" 
d="M43 0v495h80l8 -57q10 25 31 37.5t43 17.5q31 11 63 4v-73q-3 1 -15 2.5t-27 0.5t-26 -7q-29 -7 -46 -28.5t-17 -53.5v-338h-94zM223 547h-39l-58 97h75zM137 547h-43l-64 97h76z" />
    <glyph glyph-name="uni0212" unicode="&#x212;" horiz-adv-x="417" 
d="M210 739q43 0 66 -16t31.5 -38t8.5 -41h-52q-2 25 -18 37t-37 12q-22 0 -37.5 -11.5t-17.5 -37.5h-53q1 24 12 45.5t34.5 35.5t62.5 14zM50 0v591h204q56 0 86.5 -25t30.5 -74v-94q0 -49 -27 -79.5t-80 -33.5v0q34 -3 48.5 -22t26.5 -59l57 -204h-106l-47 197
q-7 25 -16 44t-29 19h-49v-260h-99zM149 327h64q35 0 49.5 18t14.5 55v75q0 33 -13.5 48t-41.5 15h-73v-211z" />
    <glyph glyph-name="uni0213" unicode="&#x213;" horiz-adv-x="271" 
d="M162 643q44 0 66.5 -16t31 -38t9.5 -41h-53q-2 25 -17.5 37t-36.5 12q-23 0 -38.5 -11.5t-17.5 -37.5h-53q1 24 12 45.5t34.5 35.5t62.5 14zM43 0v495h80l8 -57q10 25 31 37.5t43 17.5q31 11 63 4v-73q-3 1 -15 2.5t-27 0.5t-26 -7q-29 -7 -46 -28.5t-17 -53.5v-338h-94z
" />
    <glyph glyph-name="uni0214" unicode="&#x214;" horiz-adv-x="410" 
d="M205 -12q-34 0 -63 5t-50 20t-33 45t-12 81v452h96v-477q0 -27 8.5 -41.5t22.5 -19.5t31 -5t31 5t22.5 19.5t8.5 41.5v477h95v-451q0 -51 -11.5 -81.5t-32.5 -45.5t-50 -20t-63 -5zM267 643h-39l-58 97h75zM181 643h-43l-64 97h76z" />
    <glyph glyph-name="uni0215" unicode="&#x215;" horiz-adv-x="380" 
d="M153 -7q-50 0 -74.5 17t-32 46.5t-7.5 67.5v371h94v-364q0 -18 2.5 -34t14 -26.5t37.5 -10.5q19 0 30 6t17 14.5t8 16.5v398h94v-495h-80l-7 57q-9 -26 -33.5 -45t-62.5 -19zM252 547h-39l-58 97h75zM166 547h-43l-64 97h76z" />
    <glyph glyph-name="uni0216" unicode="&#x216;" horiz-adv-x="410" 
d="M206 739q43 0 66 -16t31.5 -38t8.5 -41h-52q-2 25 -18 37t-37 12q-22 0 -37.5 -11.5t-17.5 -37.5h-53q1 24 12 45.5t34.5 35.5t62.5 14zM205 -12q-34 0 -63 5t-50 20t-33 45t-12 81v452h96v-477q0 -27 8.5 -41.5t22.5 -19.5t31 -5t31 5t22.5 19.5t8.5 41.5v477h95v-451
q0 -51 -11.5 -81.5t-32.5 -45.5t-50 -20t-63 -5z" />
    <glyph glyph-name="uni0217" unicode="&#x217;" horiz-adv-x="380" 
d="M191 643q44 0 66.5 -16t31 -38t9.5 -41h-53q-2 25 -17.5 37t-36.5 12q-23 0 -38.5 -11.5t-17.5 -37.5h-53q1 24 12 45.5t34.5 35.5t62.5 14zM153 -7q-50 0 -74.5 17t-32 46.5t-7.5 67.5v371h94v-364q0 -18 2.5 -34t14 -26.5t37.5 -10.5q19 0 30 6t17 14.5t8 16.5v398h94
v-495h-80l-7 57q-9 -26 -33.5 -45t-62.5 -19z" />
    <glyph glyph-name="uni0218" unicode="&#x218;" 
d="M188 -7q-49 0 -85 15t-54.5 53t-18.5 107v34h49h49v-42q0 -42 8 -65t22 -31.5t32 -8.5q29 0 46.5 19.5t17.5 73.5q0 40 -12 60t-37.5 32.5t-65.5 28.5q-33 15 -57 35t-36 51t-12 77q0 56 14.5 91.5t49.5 52t94 16.5q76 0 116 -34.5t40 -100.5v-69h-46.5h-47.5v41
q0 46 -14.5 66.5t-46.5 20.5q-33 0 -47.5 -19.5t-14.5 -61.5q0 -36 14 -55.5t36.5 -30.5t46.5 -20q45 -17 73 -35t41 -48t13 -85q0 -63 -20.5 -99.5t-58 -52.5t-88.5 -16zM144 -179q13 20 21.5 37.5t8.5 28.5q0 7 -6 12t-12.5 11.5t-6.5 18.5q0 13 12 23.5t30 10.5
q20 0 32.5 -11.5t12.5 -28.5q0 -13 -8.5 -31.5t-20 -37t-24.5 -33.5h-39z" />
    <glyph glyph-name="uni0219" unicode="&#x219;" horiz-adv-x="360" 
d="M179 -7q-59 0 -92 14.5t-46 46.5t-13 81v41h95v-62q0 -38 11.5 -53.5t43.5 -15.5q28 0 40.5 15t12.5 47v34q0 23 -8.5 38.5t-27.5 26.5t-50 24q-29 12 -53.5 26t-39 37t-14.5 59v30q0 59 33 90t116 31q54 0 85.5 -14t45 -44.5t13.5 -78.5v-38h-91v52q0 40 -12.5 55.5
t-40.5 15.5q-31 0 -42 -16t-11 -39v-33q0 -27 13.5 -42.5t35.5 -25t50 -21.5q27 -10 49.5 -23.5t35.5 -36t13 -60.5v-27q0 -44 -14 -73.5t-47 -45t-91 -15.5zM132 -179q13 20 21.5 37.5t8.5 28.5q0 7 -6 12t-12.5 11.5t-6.5 18.5q0 13 12 23.5t30 10.5q20 0 32.5 -11.5
t12.5 -28.5q0 -13 -8.5 -31.5t-20 -37t-24.5 -33.5h-39z" />
    <glyph glyph-name="uni021A" unicode="&#x21a;" horiz-adv-x="306" 
d="M104 0v523h-94v68h286v-68h-96v-523h-96zM105 -179q13 20 21.5 37.5t8.5 28.5q0 7 -6 12t-12.5 11.5t-6.5 18.5q0 13 12 23.5t30 10.5q20 0 32.5 -11.5t12.5 -28.5q0 -13 -8.5 -31.5t-20 -37t-24.5 -33.5h-39z" />
    <glyph glyph-name="uni021B" unicode="&#x21b;" horiz-adv-x="263" 
d="M174 -3q-22 0 -43 5t-37 16.5t-25.5 32t-9.5 52.5v335h-46v48l54 9l14 92h72v-92h99v-57h-99v-319q0 -23 9 -40.5t39 -17.5q13 0 29.5 1.5t21.5 1.5v-57q-5 -1 -28 -5.5t-50 -4.5zM93 -179q13 20 21.5 37.5t8.5 28.5q0 7 -6 12t-12.5 11.5t-6.5 18.5q0 13 12 23.5
t30 10.5q20 0 32.5 -11.5t12.5 -28.5q0 -13 -8.5 -31.5t-20 -37t-24.5 -33.5h-39z" />
    <glyph glyph-name="uni022A" unicode="&#x22a;" horiz-adv-x="403" 
d="M200 -12q-47 0 -82.5 11t-55.5 45.5t-20 103.5v319q0 54 20 82.5t56 39.5t83 11t82.5 -11.5t56.5 -40t21 -81.5v-318q0 -71 -21 -105t-57 -45t-83 -11zM200 45q19 0 34 5.5t23 20.5t8 44v355q0 28 -8 43.5t-23 21t-34 5.5t-33.5 -5.5t-22.5 -21t-8 -43.5v-355
q0 -29 8 -44t22.5 -20.5t33.5 -5.5zM146 636q-18 0 -30 12t-12 29t12 28.5t30 11.5t29.5 -11.5t11.5 -28.5t-11.5 -29t-29.5 -12zM257 636q-18 0 -30 12t-12 29t12 28.5t30 11.5t30 -11.5t12 -28.5t-12 -29t-30 -12zM104 750v48h198v-48h-198z" />
    <glyph glyph-name="uni022B" unicode="&#x22b;" horiz-adv-x="364" 
d="M183 -8q-49 0 -82.5 12.5t-50 46.5t-16.5 98v218q0 75 36 106t113 31q76 0 112 -30.5t36 -106.5v-218q0 -64 -16.5 -98t-49.5 -46.5t-82 -12.5zM183 49q29 0 41.5 15.5t12.5 55.5v255q0 39 -12 55t-42 16q-29 0 -42 -15.5t-13 -55.5v-255q0 -40 13 -55.5t42 -15.5z
M127 551q-18 0 -30 12t-12 29t12 28.5t30 11.5t29.5 -11.5t11.5 -28.5t-11.5 -29t-29.5 -12zM238 551q-18 0 -30 12t-12 29t12 28.5t30 11.5t30 -11.5t12 -28.5t-12 -29t-30 -12zM83 659v48h198v-48h-198z" />
    <glyph glyph-name="uni022C" unicode="&#x22c;" horiz-adv-x="403" 
d="M200 -12q-47 0 -82.5 11t-55.5 45.5t-20 103.5v319q0 54 20 82.5t56 39.5t83 11t82.5 -11.5t56.5 -40t21 -81.5v-318q0 -71 -21 -105t-57 -45t-83 -11zM200 45q19 0 34 5.5t23 20.5t8 44v355q0 28 -8 43.5t-23 21t-34 5.5t-33.5 -5.5t-22.5 -21t-8 -43.5v-355
q0 -29 8 -44t22.5 -20.5t33.5 -5.5zM244 638q-15 0 -26.5 5t-25.5 14q-9 6 -20 11.5t-23 5.5t-20 -9t-10 -26h-30q1 35 17.5 57.5t43.5 22.5q15 0 28 -5.5t25 -13.5q11 -6 21 -11t20 -5q15 0 22 9t10 24h33q-1 -25 -10.5 -43t-24 -27t-30.5 -9zM103 741v48h198v-48h-198z
" />
    <glyph glyph-name="uni022D" unicode="&#x22d;" horiz-adv-x="364" 
d="M183 -8q-49 0 -82.5 12.5t-50 46.5t-16.5 98v218q0 75 36 106t113 31q76 0 112 -30.5t36 -106.5v-218q0 -64 -16.5 -98t-49.5 -46.5t-82 -12.5zM183 49q29 0 41.5 15.5t12.5 55.5v255q0 39 -12 55t-42 16q-29 0 -42 -15.5t-13 -55.5v-255q0 -40 13 -55.5t42 -15.5z
M227 552q-15 0 -26.5 5t-25.5 14q-9 6 -20 11.5t-23 5.5t-20 -9t-10 -26h-30q1 35 17.5 57.5t43.5 22.5q15 0 28 -5.5t25 -13.5q11 -6 21 -11t20 -5q15 0 22 9t10 24h33q-1 -25 -10.5 -43t-24 -27t-30.5 -9zM83 654v48h198v-48h-198z" />
    <glyph glyph-name="uni0230" unicode="&#x230;" horiz-adv-x="403" 
d="M200 -12q-47 0 -82.5 11t-55.5 45.5t-20 103.5v319q0 54 20 82.5t56 39.5t83 11t82.5 -11.5t56.5 -40t21 -81.5v-318q0 -71 -21 -105t-57 -45t-83 -11zM200 45q19 0 34 5.5t23 20.5t8 44v355q0 28 -8 43.5t-23 21t-34 5.5t-33.5 -5.5t-22.5 -21t-8 -43.5v-355
q0 -29 8 -44t22.5 -20.5t33.5 -5.5zM202 639q-20 0 -33.5 13t-13.5 32t13.5 32t33.5 13q19 0 33.5 -13t14.5 -32t-14.5 -32t-33.5 -13zM102 766v48h198v-48h-198z" />
    <glyph glyph-name="uni0231" unicode="&#x231;" horiz-adv-x="364" 
d="M183 -8q-49 0 -82.5 12.5t-50 46.5t-16.5 98v218q0 75 36 106t113 31q76 0 112 -30.5t36 -106.5v-218q0 -64 -16.5 -98t-49.5 -46.5t-82 -12.5zM183 49q29 0 41.5 15.5t12.5 55.5v255q0 39 -12 55t-42 16q-29 0 -42 -15.5t-13 -55.5v-255q0 -40 13 -55.5t42 -15.5z
M182 553q-20 0 -33.5 13t-13.5 32t13.5 32t33.5 13q19 0 33.5 -13t14.5 -32t-14.5 -32t-33.5 -13zM83 673v48h198v-48h-198z" />
    <glyph glyph-name="uni0232" unicode="&#x232;" horiz-adv-x="345" 
d="M122 0v254l-110 337h95l62 -202l5 -31l6 31l65 202h89l-116 -342v-249h-96zM77 649v48h198v-48h-198z" />
    <glyph glyph-name="uni0233" unicode="&#x233;" horiz-adv-x="337" 
d="M88 -117q-26 0 -48 4t-35 7v51q6 -1 16.5 -3.5t24.5 -2.5t31 4.5t25 26.5q4 9 8.5 20.5t1.5 26.5l-107 478h97l73 -403v0l71 403h89l-101 -461q-16 -79 -51 -115t-95 -36zM69 563v48h198v-48h-198z" />
    <glyph glyph-name="uni0237" unicode="&#x237;" horiz-adv-x="178" 
d="M-24 -112q-6 1 -18 1.5t-16 1.5v51q7 -1 18 -0.5t18 0.5q31 1 48 15t17 43v495h94v-469q0 -60 -22.5 -90.5t-59 -40t-79.5 -7.5z" />
    <glyph glyph-name="uni0259" unicode="&#x259;" horiz-adv-x="358" 
d="M173 503q52 0 85.5 -11.5t50 -44.5t16.5 -99v-232q0 -71 -36.5 -98t-112.5 -27q-75 0 -111 27t-36 98v132h202v137q0 37 -11.5 52t-45.5 15q-29 0 -40 -14.5t-11 -52.5v-73h-94v35q0 66 16 99.5t48.5 45t79.5 11.5zM231 204h-108v-92q0 -34 11 -49t42 -15q32 0 43.5 15
t11.5 49v92z" />
    <glyph glyph-name="uni02BC" unicode="&#x2bc;" horiz-adv-x="115" 
d="M49 375h-49l36 197h79z" />
    <glyph glyph-name="circumflex" unicode="&#x2c6;" horiz-adv-x="261" 
d="M10 546l92 100h56l93 -100h-63l-57 53l-57 -53h-64z" />
    <glyph glyph-name="ring" unicode="&#x2da;" horiz-adv-x="205" 
d="M102 542q-36 0 -59.5 23t-23.5 56t23.5 56t59.5 23q37 0 60.5 -23.5t23.5 -56.5q0 -32 -25 -55t-59 -23zM102 582q19 0 30.5 11t11.5 27q0 19 -11.5 30t-30.5 11t-30 -11t-11 -30q0 -16 11 -27t30 -11z" />
    <glyph glyph-name="tilde" unicode="&#x2dc;" horiz-adv-x="245" 
d="M165 552q-15 0 -26.5 5t-25.5 14q-9 6 -20 11.5t-23 5.5t-20 -9t-10 -26h-30q1 35 17.5 57.5t43.5 22.5q15 0 28 -5.5t25 -13.5q11 -6 21 -11t20 -5q15 0 22 9t10 24h33q-1 -25 -10.5 -43t-24 -27t-30.5 -9z" />
    <glyph glyph-name="gravecomb" horiz-adv-x="0" 
d="M96 547l-91 97h87l58 -97h-54z" />
    <glyph glyph-name="acutecomb" horiz-adv-x="0" 
d="M0 547l57 97h87l-90 -97h-54z" />
    <glyph glyph-name="uni0302" horiz-adv-x="0" 
d="M10 546l92 100h56l93 -100h-63l-57 53l-57 -53h-64z" />
    <glyph glyph-name="tildecomb" horiz-adv-x="0" 
d="M165 552q-15 0 -26.5 5t-25.5 14q-9 6 -20 11.5t-23 5.5t-20 -9t-10 -26h-30q1 35 17.5 57.5t43.5 22.5q15 0 28 -5.5t25 -13.5q11 -6 21 -11t20 -5q15 0 22 9t10 24h33q-1 -25 -10.5 -43t-24 -27t-30.5 -9z" />
    <glyph glyph-name="uni0304" horiz-adv-x="0" 
d="M10 563v48h198v-48h-198z" />
    <glyph glyph-name="uni0306" horiz-adv-x="0" 
d="M121 549q-43 0 -66 16t-31.5 38.5t-9.5 40.5h53q2 -25 17.5 -37t36.5 -12q23 0 38.5 11.5t17.5 37.5h53q-1 -23 -12 -45t-34.5 -36t-62.5 -14z" />
    <glyph glyph-name="uni0307" horiz-adv-x="0" 
d="M51 553q-20 0 -33.5 13t-13.5 32t13.5 32t33.5 13q19 0 33.5 -13t14.5 -32t-14.5 -32t-33.5 -13z" />
    <glyph glyph-name="uni0308" horiz-adv-x="0" 
d="M42 551q-18 0 -30 12t-12 29t12 28.5t30 11.5t29.5 -11.5t11.5 -28.5t-11.5 -29t-29.5 -12zM153 551q-18 0 -30 12t-12 29t12 28.5t30 11.5t30 -11.5t12 -28.5t-12 -29t-30 -12z" />
    <glyph glyph-name="hookabovecomb" horiz-adv-x="0" 
d="M56 548v14q0 14 11 21.5t22 14.5t11 19v5q0 9 -5 17t-18 8q-17 0 -20 -23l-44 7q3 25 20 38t49 13q36 0 54.5 -11.5t18.5 -46.5v-4q0 -22 -12 -30.5t-24 -13.5t-12 -17v-11h-51z" />
    <glyph glyph-name="uni030A" horiz-adv-x="0" 
d="M102 542q-36 0 -59.5 23t-23.5 56t23.5 56t59.5 23q37 0 60.5 -23.5t23.5 -56.5q0 -32 -25 -55t-59 -23zM102 582q19 0 30.5 11t11.5 27q0 19 -11.5 30t-30.5 11t-30 -11t-11 -30q0 -16 11 -27t30 -11z" />
    <glyph glyph-name="uni030B" horiz-adv-x="0" 
d="M0 547l21 97h76l-59 -97h-38zM85 547l32 97h76l-64 -97h-44z" />
    <glyph glyph-name="uni030C" horiz-adv-x="0" 
d="M97 546l-93 100h65l56 -53l57 53h63l-93 -100h-55z" />
    <glyph glyph-name="uni030F" horiz-adv-x="0" 
d="M193 547h-39l-58 97h75zM107 547h-43l-64 97h76z" />
    <glyph glyph-name="uni031B" horiz-adv-x="0" 
d="M12 448l-2 43h15q47 0 47 46v17h62v-15q0 -48 -31 -69.5t-91 -21.5z" />
    <glyph glyph-name="dotbelowcomb" horiz-adv-x="0" 
d="M52 -121q-18 0 -30 12t-12 28q0 17 12 29t30 12t30.5 -12t12.5 -29q0 -16 -12.5 -28t-30.5 -12z" />
    <glyph glyph-name="uni0326" horiz-adv-x="0" 
d="M0 -179q13 20 21.5 37.5t8.5 28.5q0 7 -6 12t-12.5 11.5t-6.5 18.5q0 13 12 23.5t30 10.5q20 0 32.5 -11.5t12.5 -28.5q0 -13 -8.5 -31.5t-20 -37t-24.5 -33.5h-39z" />
    <glyph glyph-name="uni0327" horiz-adv-x="0" 
d="M55 -155q-18 0 -33 6.5t-22 10.5l12 31q6 -5 18 -9t21 -4q17 0 26 8t9 21q0 11 -7.5 17t-18.5 6q-7 0 -12.5 -2.5t-9.5 -5.5l-28 15l32 61h37l-27 -52l-6 3q7 4 16 6.5t20 2.5q27 0 42 -16.5t15 -34.5q0 -27 -22 -45.5t-62 -18.5z" />
    <glyph glyph-name="uni0328" horiz-adv-x="0" 
d="M84 -140q-34 0 -55.5 18.5t-21.5 43.5q0 28 21.5 51t52.5 29l41 -1q-27 -10 -40 -29t-13 -37q0 -19 12.5 -29t25.5 -10q8 0 14 2l9 3l12 -26q-6 -4 -19.5 -9.5t-38.5 -5.5z" />
    <glyph glyph-name="uni0400" unicode="&#x400;" horiz-adv-x="337" 
d="M50 0v591h266v-68h-166v-179h137v-75h-137v-203h166v-66h-266zM179 634l-107 87h91l76 -87h-60z" />
    <glyph glyph-name="uni0401" unicode="&#x401;" horiz-adv-x="337" 
d="M50 0v591h266v-68h-166v-179h137v-75h-137v-203h166v-66h-266zM130 636q-18 0 -30 12t-12 29t12 28.5t30 11.5t29.5 -11.5t11.5 -28.5t-11.5 -29t-29.5 -12zM241 636q-18 0 -30 12t-12 29t12 28.5t30 11.5t30 -11.5t12 -28.5t-12 -29t-30 -12z" />
    <glyph glyph-name="uni0402" unicode="&#x402;" horiz-adv-x="456" 
d="M108 0v523h-98v68h293v-68h-99v-152q10 17 36.5 32t65.5 15t64.5 -12t38.5 -39t13 -71v-130q0 -57 -10 -90.5t-28 -50t-42.5 -21t-53.5 -4.5q-9 0 -21 2.5t-19 4.5v45q5 -1 10.5 -1h10.5q32 0 45.5 22t13.5 68v148q0 35 -12 52.5t-49 17.5q-29 0 -43 -12.5t-20 -26.5
v-320h-96z" />
    <glyph glyph-name="uni0403" unicode="&#x403;" horiz-adv-x="321" 
d="M50 0v591h267v-68h-167v-523h-100zM117 634l79 90h89l-113 -90h-55z" />
    <glyph glyph-name="uni0404" unicode="&#x404;" horiz-adv-x="388" 
d="M194 -12q-46 0 -82.5 11t-57 45.5t-20.5 104.5v317q0 54 20.5 82.5t57 40t83.5 11.5q48 0 83.5 -11.5t55.5 -40.5t20 -82v-90h-97v94q0 29 -7.5 43.5t-21.5 19t-33 4.5q-18 0 -32.5 -5t-22 -20t-7.5 -44v-145h141v-65h-141v-143q0 -29 8 -44t22 -20t32 -5q19 0 32.5 5
t21.5 20t8 44v78h97v-44q0 -71 -20 -105t-55.5 -45t-84.5 -11z" />
    <glyph glyph-name="uni0405" unicode="&#x405;" 
d="M188 -7q-49 0 -85 15t-54.5 53t-18.5 107v34h49h49v-42q0 -42 8 -65t22 -31.5t32 -8.5q29 0 46.5 19.5t17.5 73.5q0 40 -12 60t-37.5 32.5t-65.5 28.5q-33 15 -57 35t-36 51t-12 77q0 56 14.5 91.5t49.5 52t94 16.5q76 0 116 -34.5t40 -100.5v-69h-46.5h-47.5v41
q0 46 -14.5 66.5t-46.5 20.5q-33 0 -47.5 -19.5t-14.5 -61.5q0 -36 14 -55.5t36.5 -30.5t46.5 -20q45 -17 73 -35t41 -48t13 -85q0 -63 -20.5 -99.5t-58 -52.5t-88.5 -16z" />
    <glyph glyph-name="uni0406" unicode="&#x406;" horiz-adv-x="195" 
d="M50 0v591h95v-591h-95z" />
    <glyph glyph-name="uni0407" unicode="&#x407;" horiz-adv-x="195" 
d="M50 0v591h95v-591h-95zM42 636q-18 0 -30 12t-12 29t12 28.5t30 11.5t29.5 -11.5t11.5 -28.5t-11.5 -29t-29.5 -12zM153 636q-18 0 -30 12t-12 29t12 28.5t30 11.5t30 -11.5t12 -28.5t-12 -29t-30 -12z" />
    <glyph glyph-name="uni0408" unicode="&#x408;" horiz-adv-x="234" 
d="M51 -1h-22t-23 1v67l32 -1q31 0 42 11t11 44v470h96v-451q0 -54 -12 -85t-41.5 -43.5t-82.5 -12.5z" />
    <glyph glyph-name="uni0409" unicode="&#x409;" horiz-adv-x="645" 
d="M12 0v50q19 0 34 21t18 55l32 465h305v-591h-96v523h-115l-31 -423q-2 -15 -4 -32.5t-10 -32.5t-25 -24.5t-48 -10.5h-60zM401 51h60q24 0 35.5 10.5t15.5 33.5t4 60v139q0 25 -3.5 43t-15 29t-38.5 11h-58v-326zM305 0v590h94v-154h92q36 0 62 -11.5t40.5 -37.5
t14.5 -72v-163q0 -47 -8.5 -76.5t-24.5 -46t-40 -23t-56 -6.5h-174z" />
    <glyph glyph-name="uni040A" unicode="&#x40a;" horiz-adv-x="611" 
d="M50 0v591h95v-249h128v249h96v-155h91q37 0 63 -11.5t40 -37.5t14 -72v-163q0 -47 -8.5 -76.5t-24.5 -46t-40 -23t-56 -6.5h-175v271h-128v-271h-95zM369 51h59q24 0 35.5 10.5t15.5 33t4 58.5v125q0 34 -3.5 55.5t-15 32.5t-37.5 11h-58v-326z" />
    <glyph glyph-name="uni040B" unicode="&#x40b;" horiz-adv-x="451" 
d="M110 0v523h-98v68h293v-68h-99v-129q9 14 34 26.5t59 12.5q50 0 74.5 -16.5t33 -46.5t8.5 -70v-300h-94v300q0 21 -4.5 36.5t-16.5 23.5t-36 8q-25 0 -39 -11t-19 -23v-334h-96z" />
    <glyph glyph-name="uni040C" unicode="&#x40c;" horiz-adv-x="407" 
d="M50 0v591h95v-261h38l116 261h103l-131 -284l135 -307h-106l-112 265h-43v-265h-95zM163 634l79 90h89l-113 -90h-55z" />
    <glyph glyph-name="uni040D" unicode="&#x40d;" horiz-adv-x="416" 
d="M50 0v591h85v-399l147 399h84v-591h-85v377l-146 -377h-85zM201 634l-107 87h91l76 -87h-60z" />
    <glyph glyph-name="uni040E" unicode="&#x40e;" horiz-adv-x="344" 
d="M97 -12q-23 0 -44.5 3t-35.5 6v51q7 -2 16 -3t19 -1q14 0 29 4.5t21 21.5q4 10 6 22t2 29l-103 470h98l70 -398v0l72 398h90l-100 -454q-17 -81 -48.5 -115t-91.5 -34zM171 631q-43 0 -66 16t-31.5 38.5t-9.5 40.5h53q2 -25 17.5 -37t36.5 -12q23 0 38.5 11.5t17.5 37.5
h53q-1 -23 -12 -45t-34.5 -36t-62.5 -14z" />
    <glyph glyph-name="uni040F" unicode="&#x40f;" horiz-adv-x="413" 
d="M175 -99v99h-125v591h100v-523h114v523h99v-591h-126v-99h-62z" />
    <glyph glyph-name="uni0410" unicode="&#x410;" 
d="M11 0l115 591h134l113 -591h-106l-24 120h-108l-22 -120h-102zM137 169h105l-52 329z" />
    <glyph glyph-name="uni0411" unicode="&#x411;" horiz-adv-x="387" 
d="M50 0v591h281v-68h-187v-87h93q36 0 62 -11.5t40 -37.5t14 -72v-163q0 -47 -8.5 -76.5t-24.5 -46t-40 -23t-56 -6.5h-174zM204 51q23 0 34.5 9t16 26t4.5 39v179q0 21 -4 37.5t-16 26t-36 9.5h-59v-326h60z" />
    <glyph glyph-name="uni0412" unicode="&#x412;" horiz-adv-x="408" 
d="M50 0v591h199q54 0 84 -25t30 -74v-69q0 -27 -7.5 -48.5t-22.5 -35.5q-13 -13 -30.5 -18t-32.5 -6v0q18 0 35 -4t31 -16q16 -14 25.5 -36t9.5 -54v-82q0 -50 -16.5 -76.5t-46 -36.5t-70.5 -10h-188zM146 51h71q18 0 30.5 6t19.5 23t7 49v75q0 42 -17.5 55.5t-45.5 13.5
h-65v-222zM146 335h63q30 0 46 18t16 59v63q0 33 -14.5 48t-36.5 15h-74v-203z" />
    <glyph glyph-name="uni0413" unicode="&#x413;" horiz-adv-x="321" 
d="M50 0v591h267v-68h-167v-523h-100z" />
    <glyph glyph-name="uni0414" unicode="&#x414;" horiz-adv-x="562" 
d="M15 -111v172h52q20 2 35.5 23.5t19.5 61.5q4 38 8.5 84.5t9 96t8 97.5t6.5 91t5 76h287v-530h96v-172h-80v94h-367v-94h-80zM190 61h162v462h-103q-8 -92 -14.5 -183t-14.5 -183q-2 -26 -8.5 -54.5t-21.5 -41.5z" />
    <glyph glyph-name="uni0415" unicode="&#x415;" horiz-adv-x="337" 
d="M50 0v591h266v-68h-166v-179h137v-75h-137v-203h166v-66h-266z" />
    <glyph glyph-name="uni0416" unicode="&#x416;" horiz-adv-x="605" 
d="M7 0l138 307l-133 284h109l105 -258h27v258h96v-258h29l105 258h111l-134 -284l137 -307h-108l-110 279h-30v-279h-96v279h-27l-111 -279h-108z" />
    <glyph glyph-name="uni0417" unicode="&#x417;" horiz-adv-x="378" 
d="M186 -7q-57 0 -93.5 18t-53.5 51t-17 77v65h96v-42q0 -48 16 -73.5t51 -26.5q32 0 49 23t17 61v57q0 37 -25 54.5t-70 18.5h-51v56h52q21 0 39 6t30 18q12 11 17 24t5 28v39q0 32 -14.5 55t-48.5 23q-36 0 -50 -25.5t-14 -68.5v-28h-97v51q0 68 39.5 104t122.5 36
q86 0 124 -33.5t38 -98.5v-40q0 -51 -25.5 -82t-71.5 -39q48 -5 74 -37t26 -83v-42q0 -47 -16.5 -80t-52.5 -49.5t-96 -16.5z" />
    <glyph glyph-name="uni0418" unicode="&#x418;" horiz-adv-x="416" 
d="M50 0v591h85v-399l147 399h84v-591h-85v377l-146 -377h-85z" />
    <glyph glyph-name="uni0419" unicode="&#x419;" horiz-adv-x="416" 
d="M50 0v591h85v-399l147 399h84v-591h-85v377l-146 -377h-85zM207 631q-43 0 -66 16t-31.5 38.5t-9.5 40.5h53q2 -25 17.5 -37t36.5 -12q23 0 38.5 11.5t17.5 37.5h53q-1 -23 -12 -45t-34.5 -36t-62.5 -14z" />
    <glyph glyph-name="uni041A" unicode="&#x41a;" horiz-adv-x="407" 
d="M50 0v591h95v-261h38l116 261h103l-131 -284l135 -307h-106l-112 265h-43v-265h-95z" />
    <glyph glyph-name="uni041B" unicode="&#x41b;" horiz-adv-x="437" 
d="M12 0v50q19 0 34 21t18 55l32 465h305v-591h-96v523h-115l-31 -423q-2 -15 -4 -32.5t-10 -32.5t-25 -24.5t-48 -10.5h-60z" />
    <glyph glyph-name="uni041C" unicode="&#x41c;" horiz-adv-x="533" 
d="M50 0v591h118l99 -420l100 420h117v-591h-85v456l-99 -456h-66l-99 456v-456h-85z" />
    <glyph glyph-name="uni041D" unicode="&#x41d;" horiz-adv-x="417" 
d="M50 0v591h95v-248h127v248h95v-591h-95v271h-127v-271h-95z" />
    <glyph glyph-name="uni041E" unicode="&#x41e;" horiz-adv-x="403" 
d="M200 -12q-47 0 -82.5 11t-55.5 45.5t-20 103.5v319q0 54 20 82.5t56 39.5t83 11t82.5 -11.5t56.5 -40t21 -81.5v-318q0 -71 -21 -105t-57 -45t-83 -11zM200 45q19 0 34 5.5t23 20.5t8 44v355q0 28 -8 43.5t-23 21t-34 5.5t-33.5 -5.5t-22.5 -21t-8 -43.5v-355
q0 -29 8 -44t22.5 -20.5t33.5 -5.5z" />
    <glyph glyph-name="uni041F" unicode="&#x41f;" horiz-adv-x="415" 
d="M50 0v591h315v-591h-100v523h-115v-523h-100z" />
    <glyph glyph-name="uni0420" unicode="&#x420;" horiz-adv-x="391" 
d="M50 0v591h200q56 0 86 -25t30 -74v-105q0 -38 -9.5 -70.5t-36 -52.5t-76.5 -20h-94v-244h-100zM150 298h61q30 0 45 23.5t15 76.5v53q0 47 -13 67t-36 20h-72v-240z" />
    <glyph glyph-name="uni0421" unicode="&#x421;" horiz-adv-x="398" 
d="M202 -12q-46 0 -82.5 11t-57 45.5t-20.5 103.5v319q0 54 20.5 82.5t57 39.5t83.5 11q48 0 83 -11.5t55 -40t20 -81.5v-116h-96v119q0 31 -8 45.5t-22 19.5t-32 5t-32 -5t-22 -19.5t-8 -45.5v-355q0 -30 8 -45t22 -20t32 -5q19 0 32.5 5t21.5 20t8 45v106h96v-72
q0 -71 -20 -105t-55 -45t-84 -11z" />
    <glyph glyph-name="uni0422" unicode="&#x422;" horiz-adv-x="306" 
d="M104 0v523h-94v68h286v-68h-96v-523h-96z" />
    <glyph glyph-name="uni0423" unicode="&#x423;" horiz-adv-x="344" 
d="M97 -12q-23 0 -44.5 3t-35.5 6v51q7 -2 16 -3t19 -1q14 0 29 4.5t21 21.5q4 10 6 22t2 29l-103 470h98l70 -398v0l72 398h90l-100 -454q-17 -81 -48.5 -115t-91.5 -34z" />
    <glyph glyph-name="uni0424" unicode="&#x424;" horiz-adv-x="507" 
d="M206 -21v89h-30q-71 0 -108 30t-37 102v198q0 57 32 88t100 31h43v74h95v-74h41q69 0 101.5 -29.5t32.5 -91.5v-195q0 -76 -37.5 -104.5t-109.5 -28.5h-28v-89h-95zM191 119h15v171.5v171.5h-15q-31 0 -47.5 -17.5t-16.5 -57.5v-193q0 -40 16 -57.5t48 -17.5zM301 119h13
q32 0 49 16t17 59v192q0 43 -17 59.5t-49 16.5h-13v-171.5v-171.5z" />
    <glyph glyph-name="uni0425" unicode="&#x425;" horiz-adv-x="349" 
d="M13 0l90 303l-84 288h95l60 -217l62 217h100l-88 -289l86 -302h-96l-63 217l-61 -217h-101z" />
    <glyph glyph-name="uni0426" unicode="&#x426;" horiz-adv-x="458" 
d="M341 -88v88h-291v591h100v-523h118v523h100v-545h50v-134h-77z" />
    <glyph glyph-name="uni0427" unicode="&#x427;" horiz-adv-x="391" 
d="M246 0v164q-11 -10 -37 -20t-56 -10q-49 0 -74 16.5t-33.5 46.5t-8.5 70v324h94v-324q0 -33 11.5 -50.5t44.5 -17.5q26 0 39.5 7.5t19.5 11.5v373h95v-591h-95z" />
    <glyph glyph-name="uni0428" unicode="&#x428;" horiz-adv-x="633" 
d="M50 0v591h100v-523h117v523h99v-523h117v523h100v-591h-533z" />
    <glyph glyph-name="uni0429" unicode="&#x429;" horiz-adv-x="673" 
d="M556 -88v88h-506v591h100v-523h117v523h99v-523h117v523h100v-546h50v-133h-77z" />
    <glyph glyph-name="uni042A" unicode="&#x42a;" horiz-adv-x="406" 
d="M66 0v523h-59v68h154v-155h92q36 0 62 -11.5t40 -37.5t14 -72v-163q0 -47 -8 -76.5t-24.5 -46t-40.5 -23t-55 -6.5h-175zM161 51h59q24 0 36 10.5t15.5 33.5t3.5 60v138q0 26 -3 44t-14.5 29t-38.5 11h-58v-326z" />
    <glyph glyph-name="uni042B" unicode="&#x42b;" horiz-adv-x="548" 
d="M50 0v590h94v-154h92q37 0 63 -11.5t40 -37.5t14 -72v-163q0 -47 -8.5 -76.5t-24.5 -46t-40 -23t-56 -6.5h-174zM144 51h60q24 0 36 10.5t15.5 33.5t3.5 60v139q0 25 -3.5 43t-15 29t-37.5 11h-59v-326zM416 0v591h95v-591h-95z" />
    <glyph glyph-name="uni042C" unicode="&#x42c;" horiz-adv-x="389" 
d="M50 0v590h94v-154h92q37 0 63 -11.5t40 -37.5t14 -72v-163q0 -47 -8.5 -76.5t-24.5 -46t-40 -23t-56 -6.5h-174zM144 51h60q24 0 36 10.5t15.5 33.5t3.5 60v139q0 25 -3.5 43t-15 29t-37.5 11h-59v-326z" />
    <glyph glyph-name="uni042D" unicode="&#x42d;" horiz-adv-x="390" 
d="M193 -12q-48 0 -84 11t-55.5 45t-19.5 105v44h96v-78q0 -29 8 -44t22.5 -20t31.5 -5q19 0 33 5t21.5 20t7.5 44v143h-141v65h141v145q0 29 -7.5 44t-21.5 20t-33 5q-18 0 -32.5 -4.5t-22 -19t-7.5 -43.5v-94h-96v90q0 53 19.5 82t55 40.5t83.5 11.5t84 -11.5t57 -40
t21 -82.5v-317q0 -70 -20.5 -104.5t-57 -45.5t-83.5 -11z" />
    <glyph glyph-name="uni042E" unicode="&#x42e;" horiz-adv-x="593" 
d="M397 -12q-47 0 -83 11t-57 45.5t-21 104.5v122h-104v-271h-96v591h96v-248h104v123q0 54 21 83t57.5 40t83.5 11q48 0 83.5 -11.5t55 -40t19.5 -82.5v-316q0 -71 -19.5 -105.5t-55 -45.5t-84.5 -11zM398 45q18 0 32 5t22 19.5t8 43.5v359q0 29 -8 43.5t-22 19.5t-32 5
t-32.5 -5t-22 -19.5t-7.5 -43.5v-359q0 -29 7.5 -43.5t22 -19.5t32.5 -5z" />
    <glyph glyph-name="uni042F" unicode="&#x42f;" horiz-adv-x="417" 
d="M368 0h-100v260h-49q-19 0 -28.5 -19t-16.5 -44l-47 -197h-106l58 204q11 40 26 59t48 22v0q-52 3 -79 33.5t-27 79.5v94q0 49 30.5 74t85.5 25h205v-591zM268 327v211h-72q-28 0 -41.5 -15t-13.5 -48v-75q0 -37 14.5 -55t48.5 -18h64z" />
    <glyph glyph-name="uni0430" unicode="&#x430;" horiz-adv-x="366" 
d="M132 -8q-25 0 -47.5 7t-38 29.5t-15.5 69.5v59q0 49 28.5 78.5t85.5 52.5q33 14 52.5 25t28.5 26t9 41v25q0 19 -7.5 29t-19 14.5t-26.5 4.5q-33 0 -43.5 -20t-10.5 -64v-42h-85v51q0 37 10 65.5t40 45t89 16.5q61 0 92.5 -12t43.5 -36.5t12 -62.5v-394h-94v57
q-10 -31 -39.5 -48t-64.5 -17zM171 55q34 0 48.5 24.5t14.5 68.5v139q-7 -12 -25 -22t-35 -21q-25 -15 -38 -31.5t-13 -45.5v-47q0 -27 6.5 -41.5t18 -19t23.5 -4.5z" />
    <glyph glyph-name="uni0431" unicode="&#x431;" horiz-adv-x="370" 
d="M181 -7q-47 0 -79.5 12t-50 40.5t-17.5 76.5v356q0 50 10.5 81.5t35 47t66.5 15.5q20 0 45.5 2.5t50 6.5t41.5 9t20 9v-40q0 -14 -18.5 -27.5t-59.5 -14.5h-14q-32 0 -50 -8t-25.5 -25.5t-8.5 -45.5v-56q9 17 31 31t61 14q37 0 63 -11.5t40 -37.5t14 -73v-209
q0 -47 -8.5 -76.5t-27 -46.5t-48 -23.5t-71.5 -6.5zM185 49q25 0 37.5 9.5t16.5 26.5t4 39v222q0 21 -4 37t-16 25t-37 9q-21 0 -33 -5.5t-17.5 -15t-7 -20.5t-1.5 -22v-230q0 -22 4 -39t16.5 -26.5t37.5 -9.5z" />
    <glyph glyph-name="uni0432" unicode="&#x432;" horiz-adv-x="396" 
d="M36 0v495h196q56 0 86.5 -25t30.5 -76v-34q0 -46 -24.5 -73t-69.5 -30v1q44 0 74 -26.5t30 -83.5v-25q0 -49 -16.5 -76t-47 -37t-72.5 -10h-187zM136 49h62q19 0 32 5.5t19.5 20.5t6.5 44v43q0 23 -7.5 36t-21.5 18t-32 5h-59v-172zM136 284h58q30 0 45 16t15 50v42
q0 24 -14 37t-36 13h-68v-158z" />
    <glyph glyph-name="uni0433" unicode="&#x433;" horiz-adv-x="293" 
d="M36 0v495h242v-68h-142v-427h-100z" />
    <glyph glyph-name="uni0434" unicode="&#x434;" horiz-adv-x="523" 
d="M20 -111v167h39q12 2 25 11t23.5 28.5t13.5 51.5l37 348h267v-439h79v-167h-79v94h-326v-94h-79zM184 56h141v370h-81l-30 -269q-3 -27 -9 -58t-21 -43z" />
    <glyph glyph-name="uni0435" unicode="&#x435;" horiz-adv-x="358" 
d="M185 -8q-51 0 -84.5 11.5t-50 44.5t-16.5 99v232q0 72 36 98.5t112 26.5t112 -26.5t36 -98.5v-132h-202v-137q0 -37 11.5 -52t44.5 -15q30 0 41 14.5t11 52.5v73h94v-35q0 -65 -16.5 -99t-48.5 -45.5t-80 -11.5zM128 291h108v92q0 34 -11 49t-43 15q-31 0 -42.5 -15
t-11.5 -49v-92z" />
    <glyph glyph-name="uni0436" unicode="&#x436;" horiz-adv-x="587" 
d="M19 0l116 263l-117 232h94l100 -210h35v210h94v-210h34l99 210h96l-118 -232l116 -263h-103l-93 228h-31v-228h-94v228h-32l-92 -228h-104z" />
    <glyph glyph-name="uni0437" unicode="&#x437;" horiz-adv-x="393" 
d="M188 1q-73 0 -106.5 31.5t-33.5 90.5v54h84v-33q0 -42 13.5 -62.5t45.5 -20.5q31 0 47.5 18t16.5 51v49q0 32 -22.5 45.5t-64.5 13.5h-61v47h56q18 0 37 5t29 15q11 9 17 19.5t6 28.5v39q0 26 -16.5 42.5t-42.5 16.5q-33 0 -46 -20.5t-13 -53.5v-32h-84v42
q0 57 33.5 86.5t106.5 29.5q81 0 117 -28t36 -85v-32q0 -38 -23 -65t-70 -34q46 -4 70.5 -29t24.5 -69v-36q0 -65 -37 -94.5t-120 -29.5z" />
    <glyph glyph-name="uni0438" unicode="&#x438;" horiz-adv-x="373" 
d="M36 0v495h84v-326l133 326h84v-495h-83v347q-35 -87 -69.5 -173.5t-71.5 -173.5h-77z" />
    <glyph glyph-name="uni0439" unicode="&#x439;" horiz-adv-x="373" 
d="M36 0v495h84v-326l133 326h84v-495h-83v347q-35 -87 -69.5 -173.5t-71.5 -173.5h-77zM185 546q-43 0 -66 16t-31.5 38.5t-9.5 40.5h53q2 -25 17.5 -37t36.5 -12q23 0 38.5 11.5t17.5 37.5h53q-1 -23 -12 -45t-34.5 -36t-62.5 -14z" />
    <glyph glyph-name="uni043A" unicode="&#x43a;" horiz-adv-x="381" 
d="M36 0v495h95v-189q27 55 65 96.5t80 63.5t80 19v-62q-25 -6 -45 -19.5t-36 -31.5q-11 -11 -20 -24t-17 -27l116 -321h-109l-89 218q-7 -12 -14 -26l-11 -22v-170h-95z" />
    <glyph glyph-name="uni043B" unicode="&#x43b;" horiz-adv-x="418" 
d="M15 0v50q19 0 34 21t17 55l32 369h284v-495h-96v427h-93l-31 -327l-4.5 -31.5t-11 -33t-25.5 -25.5t-48 -10h-58z" />
    <glyph glyph-name="uni043C" unicode="&#x43c;" horiz-adv-x="491" 
d="M36 0v495h115l95 -375l96 375h113v-495h-77v362l-99 -362h-66l-99 362v-362h-78z" />
    <glyph glyph-name="uni043D" unicode="&#x43d;" horiz-adv-x="375" 
d="M36 0v495h94v-201h116v201h93v-495h-93v222h-116v-222h-94z" />
    <glyph glyph-name="uni043E" unicode="&#x43e;" horiz-adv-x="364" 
d="M183 -8q-49 0 -82.5 12.5t-50 46.5t-16.5 98v218q0 75 36 106t113 31q76 0 112 -30.5t36 -106.5v-218q0 -64 -16.5 -98t-49.5 -46.5t-82 -12.5zM183 49q29 0 41.5 15.5t12.5 55.5v255q0 39 -12 55t-42 16q-29 0 -42 -15.5t-13 -55.5v-255q0 -40 13 -55.5t42 -15.5z" />
    <glyph glyph-name="uni043F" unicode="&#x43f;" horiz-adv-x="377" 
d="M36 0v495h304v-495h-94v427h-116v-427h-94z" />
    <glyph glyph-name="uni0440" unicode="&#x440;" horiz-adv-x="374" 
d="M43 -116v611h91l2 -41q9 19 28 34t62 15q39 0 64.5 -13.5t37.5 -40t12 -67.5v-242q0 -50 -11 -82.5t-36 -48t-67 -15.5q-37 0 -58 12t-31 29v-151h-94zM192 48q20 0 31 5.5t16 15.5t6 23t1 28v251q0 15 -1 28t-6 23.5t-16 16t-31 5.5t-31 -7t-16 -17.5t-6.5 -23.5
t-1.5 -24v-256q0 -20 4 -35.5t15.5 -24t35.5 -8.5z" />
    <glyph glyph-name="uni0441" unicode="&#x441;" horiz-adv-x="358" 
d="M185 -8q-51 0 -84.5 11t-50 44t-16.5 98v228q0 75 36 103t112 28t112 -27t36 -98v-69h-94v73q0 35 -11 50t-43 15q-31 0 -42.5 -15t-11.5 -50v-267q0 -37 11.5 -52t44.5 -15q30 0 41 14.5t11 52.5v78h94v-49q0 -64 -16.5 -97.5t-49 -44.5t-79.5 -11z" />
    <glyph glyph-name="uni0442" unicode="&#x442;" horiz-adv-x="317" 
d="M110 0v427h-98v68h293v-68h-99v-427h-96z" />
    <glyph glyph-name="uni0443" unicode="&#x443;" horiz-adv-x="337" 
d="M88 -117q-26 0 -48 4t-35 7v51q6 -1 16.5 -3.5t24.5 -2.5t31 4.5t25 26.5q4 9 8.5 20.5t1.5 26.5l-107 478h97l73 -403v0l71 403h89l-101 -461q-16 -79 -51 -115t-95 -36z" />
    <glyph glyph-name="uni0444" unicode="&#x444;" horiz-adv-x="588" 
d="M248 -115v134q-14 -12 -35 -19t-52 -7q-75 0 -101 37.5t-26 105.5v196q0 42 10.5 72t38 46t80.5 16q32 0 54 -8t31 -21v154h93v-153q8 13 31 20.5t52 7.5q52 0 80.5 -16t39 -46t10.5 -72v-196q0 -68 -26.5 -105.5t-100.5 -37.5q-30 0 -51 7t-35 19v-134h-93zM184 44
q24 0 38 10t20 26t6 32v221q0 23 -4.5 41.5t-18 29.5t-40.5 11t-39 -10t-15 -29t-3 -46v-211q0 -22 4.5 -39t16.5 -26.5t35 -9.5zM407 44q23 0 34.5 9.5t16 26.5t4.5 39v211q0 26 -3 45t-15 30t-38 11t-40 -10.5t-19.5 -27.5t-5.5 -40v-220q0 -18 6 -35.5t20 -28t40 -10.5z
" />
    <glyph glyph-name="uni0445" unicode="&#x445;" horiz-adv-x="334" 
d="M3 0l104 259l-86 236h89l59 -164l67 164h87l-94 -236l97 -259h-90l-67 179l-73 -179h-93z" />
    <glyph glyph-name="uni0446" unicode="&#x446;" horiz-adv-x="427" 
d="M322 -83v83h-286v495h94v-427h115v427h94v-450h60v-128h-77z" />
    <glyph glyph-name="uni0447" unicode="&#x447;" horiz-adv-x="354" 
d="M230 0v176q-7 -29 -33 -46.5t-61 -17.5q-46 0 -70 16t-32 46t-8 71v250h94v-251q0 -33 10.5 -50.5t40.5 -17.5q23 0 35.5 11.5t17.5 23.5v284h94v-495h-88z" />
    <glyph glyph-name="uni0448" unicode="&#x448;" horiz-adv-x="547" 
d="M36 0v495h94v-427h96v427h94v-427h96v427h94v-495h-474z" />
    <glyph glyph-name="uni0449" unicode="&#x449;" horiz-adv-x="599" 
d="M494 -83v83h-458v495h95v-427h95v427h95v-427h95v427h95v-449h60v-129h-77z" />
    <glyph glyph-name="uni044A" unicode="&#x44a;" horiz-adv-x="413" 
d="M74 0v438h-59v57h153v-155h92q36 0 62 -11.5t40.5 -37.5t14.5 -72v-67q0 -47 -8.5 -76.5t-24.5 -46t-40 -23t-57 -6.5h-173zM168 50h59q24 0 36 9.5t16 26.5t4 39v79q0 22 -3 39.5t-15 27.5t-39 10h-58v-231z" />
    <glyph glyph-name="uni044B" unicode="&#x44b;" horiz-adv-x="554" 
d="M35 0v494h94v-154h92q38 0 64 -12t39 -38.5t13 -70.5v-56q0 -47 -7 -78.5t-22.5 -50t-40 -26.5t-58.5 -8h-174zM129 50h58q25 0 37 9.5t15.5 26.5t3.5 39v79q0 22 -3 39.5t-14.5 27.5t-38.5 10h-58v-231zM417 0v495h94v-495h-94z" />
    <glyph glyph-name="uni044C" unicode="&#x44c;" horiz-adv-x="374" 
d="M35 0v494h94v-154h92q38 0 64 -12t39 -38.5t13 -70.5v-56q0 -47 -7 -78.5t-22.5 -50t-40 -26.5t-58.5 -8h-174zM129 50h58q25 0 37 9.5t15.5 26.5t3.5 39v79q0 22 -3 39.5t-14.5 27.5t-38.5 10h-58v-231z" />
    <glyph glyph-name="uni044D" unicode="&#x44d;" horiz-adv-x="376" 
d="M189 -10q-57 0 -90 15t-48 49.5t-15 94.5v25h94v-59q0 -21 4 -38t16.5 -26.5t38.5 -9.5q27 0 39 10t15 27t3 36v112h-147v61h147v92q0 20 -3 36.5t-15 26.5t-39 10q-26 0 -38.5 -9t-16.5 -26t-4 -39v-40h-94v32q0 44 14.5 73t47.5 44.5t91 15.5q43 0 72 -9t46.5 -26
t25 -41.5t7.5 -55.5v-223q0 -43 -8 -73.5t-25.5 -48.5t-46.5 -27t-71 -9z" />
    <glyph glyph-name="uni044E" unicode="&#x44e;" horiz-adv-x="586" 
d="M402 -10q-55 0 -88 15.5t-47 50t-14 91.5v226q0 41 13.5 70t46.5 44.5t89 15.5t88.5 -15.5t46 -44.5t13.5 -70v-226q0 -57 -14 -91.5t-47 -50t-87 -15.5zM36 0v495h94v-201h153v-72h-153v-222h-94zM402 41q24 0 35.5 9.5t15 26.5t3.5 36v268q0 20 -3.5 36t-15 25.5
t-35.5 9.5q-25 0 -36.5 -9.5t-15 -25.5t-3.5 -36v-268q0 -19 3.5 -36t15 -26.5t36.5 -9.5z" />
    <glyph glyph-name="uni044F" unicode="&#x44f;" horiz-adv-x="399" 
d="M26 0l59 166q12 33 27.5 48t35.5 17q-47 4 -70.5 29.5t-23.5 81.5v35q0 61 31 89.5t87 28.5h190v-495h-99v221l-45 -14q-16 -17 -28.5 -44.5t-23.5 -61.5l-33 -101h-107zM212 260h51v182h-67q-21 0 -34 -20.5t-13 -50.5v-24q1 -50 17.5 -68.5t45.5 -18.5z" />
    <glyph glyph-name="uni0450" unicode="&#x450;" horiz-adv-x="358" 
d="M185 -8q-51 0 -84.5 11.5t-50 44.5t-16.5 99v232q0 72 36 98.5t112 26.5t112 -26.5t36 -98.5v-132h-202v-137q0 -37 11.5 -52t44.5 -15q30 0 41 14.5t11 52.5v73h94v-35q0 -65 -16.5 -99t-48.5 -45.5t-80 -11.5zM128 291h108v92q0 34 -11 49t-43 15q-31 0 -42.5 -15
t-11.5 -49v-92zM170 547l-91 97h87l58 -97h-54z" />
    <glyph glyph-name="uni0451" unicode="&#x451;" horiz-adv-x="358" 
d="M185 -8q-51 0 -84.5 11.5t-50 44.5t-16.5 99v232q0 72 36 98.5t112 26.5t112 -26.5t36 -98.5v-132h-202v-137q0 -37 11.5 -52t44.5 -15q30 0 41 14.5t11 52.5v73h94v-35q0 -65 -16.5 -99t-48.5 -45.5t-80 -11.5zM128 291h108v92q0 34 -11 49t-43 15q-31 0 -42.5 -15
t-11.5 -49v-92zM124 551q-18 0 -30 12t-12 29t12 28.5t30 11.5t29.5 -11.5t11.5 -28.5t-11.5 -29t-29.5 -12zM235 551q-18 0 -30 12t-12 29t12 28.5t30 11.5t30 -11.5t12 -28.5t-12 -29t-30 -12z" />
    <glyph glyph-name="uni0452" unicode="&#x452;" horiz-adv-x="420" 
d="M275 -92q-23 0 -39.5 4t-27.5 9l5 44q5 -3 11.5 -5t16.5 -2q28 0 38 21.5t10 61.5v259q-1 28 -12.5 44.5t-43.5 16.5q-22 0 -34 -8t-16.5 -21t-5.5 -26t-2 -23v-283h-96v503h-66v52h66v75h96v-75h92v-52h-92v-133q10 20 32 35t60 15q36 0 62 -11.5t40.5 -38t14.5 -72.5
v-235q0 -49 -8.5 -79.5t-23 -47t-34.5 -22.5t-43 -6z" />
    <glyph glyph-name="uni0453" unicode="&#x453;" horiz-adv-x="293" 
d="M36 0v495h242v-68h-142v-427h-100zM107 547l57 97h87l-90 -97h-54z" />
    <glyph glyph-name="uni0454" unicode="&#x454;" horiz-adv-x="376" 
d="M187 -10q-42 0 -71 9t-46.5 27t-25.5 48.5t-8 73.5v223q0 31 7.5 55.5t25 41.5t46.5 26t72 9q58 0 91.5 -15.5t47.5 -44.5t14 -73v-32h-94v40q0 22 -4 39t-16 26t-39 9q-26 0 -38.5 -10t-15.5 -26.5t-3 -36.5v-92h148v-61h-148v-112q0 -19 3 -36t15.5 -27t38.5 -10
q27 0 39 9.5t16 26.5t4 38v59h94v-25q0 -60 -14.5 -94.5t-48 -49.5t-90.5 -15z" />
    <glyph glyph-name="uni0455" unicode="&#x455;" horiz-adv-x="360" 
d="M179 -7q-59 0 -92 14.5t-46 46.5t-13 81v41h95v-62q0 -38 11.5 -53.5t43.5 -15.5q28 0 40.5 15t12.5 47v34q0 23 -8.5 38.5t-27.5 26.5t-50 24q-29 12 -53.5 26t-39 37t-14.5 59v30q0 59 33 90t116 31q54 0 85.5 -14t45 -44.5t13.5 -78.5v-38h-91v52q0 40 -12.5 55.5
t-40.5 15.5q-31 0 -42 -16t-11 -39v-33q0 -27 13.5 -42.5t35.5 -25t50 -21.5q27 -10 49.5 -23.5t35.5 -36t13 -60.5v-27q0 -44 -14 -73.5t-47 -45t-91 -15.5z" />
    <glyph glyph-name="uni0456" unicode="&#x456;" horiz-adv-x="180" 
d="M43 0v495h94v-495h-94zM90 553q-20 0 -33.5 13t-13.5 32t13.5 32t33.5 13q19 0 33.5 -13t14.5 -32t-14.5 -32t-33.5 -13z" />
    <glyph glyph-name="uni0457" unicode="&#x457;" horiz-adv-x="180" 
d="M43 0v495h94v-495h-94zM35 551q-18 0 -30 12t-12 29t12 28.5t30 11.5t29.5 -11.5t11.5 -28.5t-11.5 -29t-29.5 -12zM146 551q-18 0 -30 12t-12 29t12 28.5t30 11.5t30 -11.5t12 -28.5t-12 -29t-30 -12z" />
    <glyph glyph-name="uni0458" unicode="&#x458;" horiz-adv-x="178" 
d="M-24 -112q-6 1 -18 1.5t-16 1.5v51q7 -1 18 -0.5t18 0.5q31 1 48 15t17 43v495h94v-469q0 -60 -22.5 -90.5t-59 -40t-79.5 -7.5zM89 553q-20 0 -33.5 13t-13.5 32t13.5 32t33.5 13q19 0 33.5 -13t14.5 -32t-14.5 -32t-33.5 -13z" />
    <glyph glyph-name="uni0459" unicode="&#x459;" horiz-adv-x="627" 
d="M15 0v50q19 0 34 21t17 55l32 369h284v-155h92q38 0 64 -12t39 -38.5t13 -70.5v-56q0 -47 -7 -78.5t-22.5 -50t-40 -26.5t-59.5 -8h-175v427h-93l-31 -327l-4.5 -31.5t-11 -33t-25.5 -25.5t-48 -10h-58zM382 50h58q25 0 37 9.5t15.5 26.5t3.5 39v79q0 22 -3 39.5
t-15 27.5t-38 10h-58v-231z" />
    <glyph glyph-name="uni045A" unicode="&#x45a;" horiz-adv-x="584" 
d="M36 0v495h94v-201h116v201h93v-155h92q38 0 64 -12t39.5 -38.5t13.5 -70.5v-56q0 -47 -7.5 -78.5t-23 -50t-40 -26.5t-59.5 -8h-172v222h-116v-222h-94zM339 50h59q25 0 36.5 9.5t15.5 26.5t4 39v79q0 22 -3 39.5t-15 27.5t-39 10h-58v-231z" />
    <glyph glyph-name="uni045B" unicode="&#x45b;" horiz-adv-x="426" 
d="M84 0v503h-56v52h56v75h96v-75h119v-52h-119v-129q10 20 32 35t61 15q36 0 61.5 -11.5t40 -38t14.5 -72.5v-302h-95v292q0 21 -3.5 37.5t-15 26t-36.5 9.5q-22 0 -34 -8t-16.5 -21t-6 -26t-2.5 -24v-286h-96z" />
    <glyph glyph-name="uni045C" unicode="&#x45c;" horiz-adv-x="381" 
d="M36 0v495h95v-189q27 55 65 96.5t80 63.5t80 19v-62q-25 -6 -45 -19.5t-36 -31.5q-11 -11 -20 -24t-17 -27l116 -321h-109l-89 218q-7 -12 -14 -26l-11 -22v-170h-95zM151 547l57 97h87l-90 -97h-54z" />
    <glyph glyph-name="uni045D" unicode="&#x45d;" horiz-adv-x="373" 
d="M36 0v495h84v-326l133 326h84v-495h-83v347q-35 -87 -69.5 -173.5t-71.5 -173.5h-77zM177 547l-91 97h87l58 -97h-54z" />
    <glyph glyph-name="uni045E" unicode="&#x45e;" horiz-adv-x="337" 
d="M88 -117q-26 0 -48 4t-35 7v51q6 -1 16.5 -3.5t24.5 -2.5t31 4.5t25 26.5q4 9 8.5 20.5t1.5 26.5l-107 478h97l73 -403v0l71 403h89l-101 -461q-16 -79 -51 -115t-95 -36zM167 546q-43 0 -66 16t-31.5 38.5t-9.5 40.5h53q2 -25 17.5 -37t36.5 -12q23 0 38.5 11.5
t17.5 37.5h53q-1 -23 -12 -45t-34.5 -36t-62.5 -14z" />
    <glyph glyph-name="uni045F" unicode="&#x45f;" horiz-adv-x="377" 
d="M153 -106v106h-117v495h94v-427h116v427h94v-495h-118v-106h-69z" />
    <glyph glyph-name="Wgrave" unicode="&#x1e80;" horiz-adv-x="579" 
d="M107 0l-91 591h98l63 -465l73 465h79l71 -465l65 465h98l-91 -591h-111l-72 384l-70 -384h-112zM283 634l-107 87h91l76 -87h-60z" />
    <glyph glyph-name="wgrave" unicode="&#x1e81;" horiz-adv-x="569" 
d="M114 0l-106 495h89l72 -380l71 380h90l76 -380l66 380h89l-104 -495h-108l-64 313l-63 -313h-108zM275 547l-91 97h87l58 -97h-54z" />
    <glyph glyph-name="Wacute" unicode="&#x1e82;" horiz-adv-x="579" 
d="M107 0l-91 591h98l63 -465l73 465h79l71 -465l65 465h98l-91 -591h-111l-72 384l-70 -384h-112zM235 634l79 90h89l-113 -90h-55z" />
    <glyph glyph-name="wacute" unicode="&#x1e83;" horiz-adv-x="569" 
d="M114 0l-106 495h89l72 -380l71 380h90l76 -380l66 380h89l-104 -495h-108l-64 313l-63 -313h-108zM245 547l57 97h87l-90 -97h-54z" />
    <glyph glyph-name="Wdieresis" unicode="&#x1e84;" horiz-adv-x="579" 
d="M107 0l-91 591h98l63 -465l73 465h79l71 -465l65 465h98l-91 -591h-111l-72 384l-70 -384h-112zM234 636q-18 0 -30 12t-12 29t12 28.5t30 11.5t29.5 -11.5t11.5 -28.5t-11.5 -29t-29.5 -12zM345 636q-18 0 -30 12t-12 29t12 28.5t30 11.5t30 -11.5t12 -28.5t-12 -29
t-30 -12z" />
    <glyph glyph-name="wdieresis" unicode="&#x1e85;" horiz-adv-x="569" 
d="M114 0l-106 495h89l72 -380l71 380h90l76 -380l66 380h89l-104 -495h-108l-64 313l-63 -313h-108zM230 551q-18 0 -30 12t-12 29t12 28.5t30 11.5t29.5 -11.5t11.5 -28.5t-11.5 -29t-29.5 -12zM341 551q-18 0 -30 12t-12 29t12 28.5t30 11.5t30 -11.5t12 -28.5t-12 -29
t-30 -12z" />
    <glyph glyph-name="uni1E9E" unicode="&#x1e9e;" horiz-adv-x="428" 
d="M64 -41v582q0 20 10 32t44 16.5t104 4.5q81 0 123 -21.5t42 -76.5v-58q0 -42 -21 -68t-48 -28v-4q20 -2 39.5 -13t32.5 -31t13 -50v-123q0 -52 -19.5 -78t-54 -34.5t-81.5 -8.5h-60v50h48q23 0 37 8t20.5 31t6.5 69v81q0 25 -8 41t-24 23t-42 7h-30v52h46q33 0 43 21
t10 57v29q0 41 -14 59.5t-55 18.5q-32 0 -46 -2t-18 -8.5t-4 -20.5v-557h-94z" />
    <glyph glyph-name="uni1EA0" unicode="&#x1ea0;" 
d="M11 0l115 591h134l113 -591h-106l-24 120h-108l-22 -120h-102zM137 169h105l-52 329zM192 -121q-18 0 -30 12t-12 28q0 17 12 29t30 12t30.5 -12t12.5 -29q0 -16 -12.5 -28t-30.5 -12z" />
    <glyph glyph-name="uni1EA1" unicode="&#x1ea1;" horiz-adv-x="366" 
d="M132 -8q-25 0 -47.5 7t-38 29.5t-15.5 69.5v59q0 49 28.5 78.5t85.5 52.5q33 14 52.5 25t28.5 26t9 41v25q0 19 -7.5 29t-19 14.5t-26.5 4.5q-33 0 -43.5 -20t-10.5 -64v-42h-85v51q0 37 10 65.5t40 45t89 16.5q61 0 92.5 -12t43.5 -36.5t12 -62.5v-394h-94v57
q-10 -31 -39.5 -48t-64.5 -17zM171 55q34 0 48.5 24.5t14.5 68.5v139q-7 -12 -25 -22t-35 -21q-25 -15 -38 -31.5t-13 -45.5v-47q0 -27 6.5 -41.5t18 -19t23.5 -4.5zM182 -121q-18 0 -30 12t-12 28q0 17 12 29t30 12t30.5 -12t12.5 -29q0 -16 -12.5 -28t-30.5 -12z" />
    <glyph glyph-name="uni1EA2" unicode="&#x1ea2;" 
d="M11 0l115 591h134l113 -591h-106l-24 120h-108l-22 -120h-102zM137 169h105l-52 329zM165 627v14q0 14 11 21.5t22 14.5t11 19v5q0 9 -5 17t-18 8q-17 0 -20 -23l-44 7q3 25 20 38t49 13q36 0 54.5 -11.5t18.5 -46.5v-4q0 -22 -12 -30.5t-24 -13.5t-12 -17v-11h-51z" />
    <glyph glyph-name="uni1EA3" unicode="&#x1ea3;" horiz-adv-x="366" 
d="M132 -8q-25 0 -47.5 7t-38 29.5t-15.5 69.5v59q0 49 28.5 78.5t85.5 52.5q33 14 52.5 25t28.5 26t9 41v25q0 19 -7.5 29t-19 14.5t-26.5 4.5q-33 0 -43.5 -20t-10.5 -64v-42h-85v51q0 37 10 65.5t40 45t89 16.5q61 0 92.5 -12t43.5 -36.5t12 -62.5v-394h-94v57
q-10 -31 -39.5 -48t-64.5 -17zM171 55q34 0 48.5 24.5t14.5 68.5v139q-7 -12 -25 -22t-35 -21q-25 -15 -38 -31.5t-13 -45.5v-47q0 -27 6.5 -41.5t18 -19t23.5 -4.5zM161 548v14q0 14 11 21.5t22 14.5t11 19v5q0 9 -5 17t-18 8q-17 0 -20 -23l-44 7q3 25 20 38t49 13
q36 0 54.5 -11.5t18.5 -46.5v-4q0 -22 -12 -30.5t-24 -13.5t-12 -17v-11h-51z" />
    <glyph glyph-name="uni1EA4" unicode="&#x1ea4;" 
d="M11 0l115 591h134l113 -591h-106l-24 120h-108l-22 -120h-102zM137 169h105l-52 329zM99 626l67 77h52l68 -77h-55l-38 37l-37 -37h-57zM285 677l40 72h84l-70 -72h-54z" />
    <glyph glyph-name="uni1EA5" unicode="&#x1ea5;" horiz-adv-x="366" 
d="M132 -8q-25 0 -47.5 7t-38 29.5t-15.5 69.5v59q0 49 28.5 78.5t85.5 52.5q33 14 52.5 25t28.5 26t9 41v25q0 19 -7.5 29t-19 14.5t-26.5 4.5q-33 0 -43.5 -20t-10.5 -64v-42h-85v51q0 37 10 65.5t40 45t89 16.5q61 0 92.5 -12t43.5 -36.5t12 -62.5v-394h-94v57
q-10 -31 -39.5 -48t-64.5 -17zM171 55q34 0 48.5 24.5t14.5 68.5v139q-7 -12 -25 -22t-35 -21q-25 -15 -38 -31.5t-13 -45.5v-47q0 -27 6.5 -41.5t18 -19t23.5 -4.5zM67 546l92 100h56l93 -100h-63l-57 53l-57 -53h-64zM309 601l57 97h87l-90 -97h-54z" />
    <glyph glyph-name="uni1EA6" unicode="&#x1ea6;" 
d="M11 0l115 591h134l113 -591h-106l-24 120h-108l-22 -120h-102zM137 169h105l-52 329zM99 626l67 77h52l68 -77h-55l-38 37l-37 -37h-57zM311 676l-70 72h84l40 -72h-54z" />
    <glyph glyph-name="uni1EA7" unicode="&#x1ea7;" horiz-adv-x="366" 
d="M132 -8q-25 0 -47.5 7t-38 29.5t-15.5 69.5v59q0 49 28.5 78.5t85.5 52.5q33 14 52.5 25t28.5 26t9 41v25q0 19 -7.5 29t-19 14.5t-26.5 4.5q-33 0 -43.5 -20t-10.5 -64v-42h-85v51q0 37 10 65.5t40 45t89 16.5q61 0 92.5 -12t43.5 -36.5t12 -62.5v-394h-94v57
q-10 -31 -39.5 -48t-64.5 -17zM171 55q34 0 48.5 24.5t14.5 68.5v139q-7 -12 -25 -22t-35 -21q-25 -15 -38 -31.5t-13 -45.5v-47q0 -27 6.5 -41.5t18 -19t23.5 -4.5zM67 546l92 100h56l93 -100h-63l-57 53l-57 -53h-64zM339 601l-91 97h87l58 -97h-54z" />
    <glyph glyph-name="uni1EA8" unicode="&#x1ea8;" 
d="M11 0l115 591h134l113 -591h-106l-24 120h-108l-22 -120h-102zM137 169h105l-52 329zM99 626l67 77h52l68 -77h-55l-38 37l-37 -37h-57zM291 673v8q0 10 8 15.5t16.5 10t8.5 12.5v4q0 8 -4 12t-10 4q-11 0 -13 -15l-39 6q2 20 15 30.5t41 10.5q33 0 46 -9t13 -37v-3
q0 -15 -8 -21t-16 -9.5t-8 -11.5v-7h-50z" />
    <glyph glyph-name="uni1EA9" unicode="&#x1ea9;" horiz-adv-x="366" 
d="M132 -8q-25 0 -47.5 7t-38 29.5t-15.5 69.5v59q0 49 28.5 78.5t85.5 52.5q33 14 52.5 25t28.5 26t9 41v25q0 19 -7.5 29t-19 14.5t-26.5 4.5q-33 0 -43.5 -20t-10.5 -64v-42h-85v51q0 37 10 65.5t40 45t89 16.5q61 0 92.5 -12t43.5 -36.5t12 -62.5v-394h-94v57
q-10 -31 -39.5 -48t-64.5 -17zM171 55q34 0 48.5 24.5t14.5 68.5v139q-7 -12 -25 -22t-35 -21q-25 -15 -38 -31.5t-13 -45.5v-47q0 -27 6.5 -41.5t18 -19t23.5 -4.5zM67 546l92 100h56l93 -100h-63l-57 53l-57 -53h-64zM322 602v14q0 14 11 21.5t22 14.5t11 19v5q0 9 -5 17
t-18 8q-17 0 -20 -23l-44 7q3 25 20 38t49 13q36 0 54.5 -11.5t18.5 -46.5v-4q0 -22 -12 -30.5t-24 -13.5t-12 -17v-11h-51z" />
    <glyph glyph-name="uni1EAA" unicode="&#x1eaa;" 
d="M11 0l115 591h134l113 -591h-106l-24 120h-108l-22 -120h-102zM137 169h105l-52 329zM99 626l67 77h52l68 -77h-55l-38 37l-37 -37h-57zM226 720q-11 0 -20.5 4.5t-18.5 9.5t-17 8.5t-16 3.5t-14 -7t-7 -18h-25q1 31 14 49t33 18q11 0 21 -3t20 -10q8 -4 16 -7.5t15 -3.5
q10 0 15.5 6.5t6.5 15.5h29q0 -21 -8.5 -36t-20 -22.5t-23.5 -7.5z" />
    <glyph glyph-name="uni1EAB" unicode="&#x1eab;" horiz-adv-x="366" 
d="M132 -8q-25 0 -47.5 7t-38 29.5t-15.5 69.5v59q0 49 28.5 78.5t85.5 52.5q33 14 52.5 25t28.5 26t9 41v25q0 19 -7.5 29t-19 14.5t-26.5 4.5q-33 0 -43.5 -20t-10.5 -64v-42h-85v51q0 37 10 65.5t40 45t89 16.5q61 0 92.5 -12t43.5 -36.5t12 -62.5v-394h-94v57
q-10 -31 -39.5 -48t-64.5 -17zM171 55q34 0 48.5 24.5t14.5 68.5v139q-7 -12 -25 -22t-35 -21q-25 -15 -38 -31.5t-13 -45.5v-47q0 -27 6.5 -41.5t18 -19t23.5 -4.5zM67 546l92 100h56l93 -100h-63l-57 53l-57 -53h-64zM232 669q-15 0 -26.5 5t-25.5 14q-9 6 -20 11.5
t-23 5.5t-20 -9t-10 -26h-30q1 35 17.5 57.5t43.5 22.5q15 0 28 -5.5t25 -13.5q11 -6 21 -11t20 -5q15 0 22 9t10 24h33q-1 -25 -10.5 -43t-24 -27t-30.5 -9z" />
    <glyph glyph-name="uni1EAC" unicode="&#x1eac;" 
d="M11 0l115 591h134l113 -591h-106l-24 120h-108l-22 -120h-102zM137 169h105l-52 329zM192 -121q-18 0 -30 12t-12 28q0 17 12 29t30 12t30.5 -12t12.5 -29q0 -16 -12.5 -28t-30.5 -12zM71 630l93 96h56l94 -95h-65l-56 47l-55 -48h-67z" />
    <glyph glyph-name="uni1EAD" unicode="&#x1ead;" horiz-adv-x="366" 
d="M132 -8q-25 0 -47.5 7t-38 29.5t-15.5 69.5v59q0 49 28.5 78.5t85.5 52.5q33 14 52.5 25t28.5 26t9 41v25q0 19 -7.5 29t-19 14.5t-26.5 4.5q-33 0 -43.5 -20t-10.5 -64v-42h-85v51q0 37 10 65.5t40 45t89 16.5q61 0 92.5 -12t43.5 -36.5t12 -62.5v-394h-94v57
q-10 -31 -39.5 -48t-64.5 -17zM171 55q34 0 48.5 24.5t14.5 68.5v139q-7 -12 -25 -22t-35 -21q-25 -15 -38 -31.5t-13 -45.5v-47q0 -27 6.5 -41.5t18 -19t23.5 -4.5zM182 -121q-18 0 -30 12t-12 28q0 17 12 29t30 12t30.5 -12t12.5 -29q0 -16 -12.5 -28t-30.5 -12zM67 546
l92 100h56l93 -100h-63l-57 53l-57 -53h-64z" />
    <glyph glyph-name="uni1EAE" unicode="&#x1eae;" 
d="M11 0l115 591h134l113 -591h-106l-24 120h-108l-22 -120h-102zM137 169h105l-52 329zM192 626q-35 0 -52.5 12t-23.5 29.5t-7 31.5h52q0 -14 9.5 -21t21.5 -7t22 6.5t10 21.5h52q0 -30 -19.5 -51.5t-64.5 -21.5zM154 715l40 72h85l-71 -72h-54z" />
    <glyph glyph-name="uni1EAF" unicode="&#x1eaf;" horiz-adv-x="366" 
d="M132 -8q-25 0 -47.5 7t-38 29.5t-15.5 69.5v59q0 49 28.5 78.5t85.5 52.5q33 14 52.5 25t28.5 26t9 41v25q0 19 -7.5 29t-19 14.5t-26.5 4.5q-33 0 -43.5 -20t-10.5 -64v-42h-85v51q0 37 10 65.5t40 45t89 16.5q61 0 92.5 -12t43.5 -36.5t12 -62.5v-394h-94v57
q-10 -31 -39.5 -48t-64.5 -17zM171 55q34 0 48.5 24.5t14.5 68.5v139q-7 -12 -25 -22t-35 -21q-25 -15 -38 -31.5t-13 -45.5v-47q0 -27 6.5 -41.5t18 -19t23.5 -4.5zM187 546q-43 0 -66 16t-31.5 38.5t-9.5 40.5h53q2 -25 17.5 -37t36.5 -12q23 0 38.5 11.5t17.5 37.5h53
q-1 -23 -12 -45t-34.5 -36t-62.5 -14zM147 660l57 97h87l-90 -97h-54z" />
    <glyph glyph-name="uni1EB0" unicode="&#x1eb0;" 
d="M11 0l115 591h134l113 -591h-106l-24 120h-108l-22 -120h-102zM137 169h105l-52 329zM191 626q-35 0 -52.5 12t-23.5 29.5t-6 31.5h51q0 -15 10 -21.5t21 -6.5q13 0 22.5 6.5t10.5 21.5h51q0 -30 -19.5 -51.5t-64.5 -21.5zM181 715l-71 72h85l40 -72h-54z" />
    <glyph glyph-name="uni1EB1" unicode="&#x1eb1;" horiz-adv-x="366" 
d="M132 -8q-25 0 -47.5 7t-38 29.5t-15.5 69.5v59q0 49 28.5 78.5t85.5 52.5q33 14 52.5 25t28.5 26t9 41v25q0 19 -7.5 29t-19 14.5t-26.5 4.5q-33 0 -43.5 -20t-10.5 -64v-42h-85v51q0 37 10 65.5t40 45t89 16.5q61 0 92.5 -12t43.5 -36.5t12 -62.5v-394h-94v57
q-10 -31 -39.5 -48t-64.5 -17zM171 55q34 0 48.5 24.5t14.5 68.5v139q-7 -12 -25 -22t-35 -21q-25 -15 -38 -31.5t-13 -45.5v-47q0 -27 6.5 -41.5t18 -19t23.5 -4.5zM187 546q-43 0 -66 16t-31.5 38.5t-9.5 40.5h53q2 -25 17.5 -37t36.5 -12q23 0 38.5 11.5t17.5 37.5h53
q-1 -23 -12 -45t-34.5 -36t-62.5 -14zM178 660l-91 97h87l58 -97h-54z" />
    <glyph glyph-name="uni1EB2" unicode="&#x1eb2;" 
d="M11 0l115 591h134l113 -591h-106l-24 120h-108l-22 -120h-102zM137 169h105l-52 329zM192 626q-35 0 -52.5 12t-23.5 29.5t-7 31.5h52q0 -14 9.5 -21t21.5 -7t22 6.5t10 21.5h52q0 -30 -19.5 -51.5t-64.5 -21.5zM166 715v8q0 11 8.5 16.5t16.5 10t8 11.5v5q0 7 -3.5 11
t-10.5 4q-5 0 -9 -4t-5 -11l-39 7q2 20 15 30.5t41 10.5q34 0 47.5 -9.5t13.5 -36.5v-3q0 -16 -8 -22t-16.5 -9.5t-8.5 -11.5v-7h-50z" />
    <glyph glyph-name="uni1EB3" unicode="&#x1eb3;" horiz-adv-x="366" 
d="M132 -8q-25 0 -47.5 7t-38 29.5t-15.5 69.5v59q0 49 28.5 78.5t85.5 52.5q33 14 52.5 25t28.5 26t9 41v25q0 19 -7.5 29t-19 14.5t-26.5 4.5q-33 0 -43.5 -20t-10.5 -64v-42h-85v51q0 37 10 65.5t40 45t89 16.5q61 0 92.5 -12t43.5 -36.5t12 -62.5v-394h-94v57
q-10 -31 -39.5 -48t-64.5 -17zM171 55q34 0 48.5 24.5t14.5 68.5v139q-7 -12 -25 -22t-35 -21q-25 -15 -38 -31.5t-13 -45.5v-47q0 -27 6.5 -41.5t18 -19t23.5 -4.5zM187 546q-43 0 -66 16t-31.5 38.5t-9.5 40.5h53q2 -25 17.5 -37t36.5 -12q23 0 38.5 11.5t17.5 37.5h53
q-1 -23 -12 -45t-34.5 -36t-62.5 -14zM161 661v14q0 14 11 21.5t22 14.5t11 19v5q0 9 -5 17t-18 8q-17 0 -20 -23l-44 7q3 25 20 38t49 13q36 0 54.5 -11.5t18.5 -46.5v-4q0 -22 -12 -30.5t-24 -13.5t-12 -17v-11h-51z" />
    <glyph glyph-name="uni1EB4" unicode="&#x1eb4;" 
d="M11 0l115 591h134l113 -591h-106l-24 120h-108l-22 -120h-102zM137 169h105l-52 329zM191 626q-35 0 -52.5 12t-23.5 29.5t-7 31.5h52q1 -14 10 -21t21 -7q13 0 22.5 6.5t10.5 21.5h51q1 -30 -19.5 -51.5t-64.5 -21.5zM226 715q-11 0 -20.5 4.5t-21.5 10.5q-7 4 -14 7.5
t-17 3.5q-9 0 -14 -7t-5 -18h-27q0 30 13 49t34 19q11 0 21 -3.5t19 -8.5t16.5 -8.5t15.5 -3.5q10 0 14.5 6t6.5 16h29q1 -21 -7.5 -36.5t-20 -23t-22.5 -7.5z" />
    <glyph glyph-name="uni1EB5" unicode="&#x1eb5;" horiz-adv-x="366" 
d="M132 -8q-25 0 -47.5 7t-38 29.5t-15.5 69.5v59q0 49 28.5 78.5t85.5 52.5q33 14 52.5 25t28.5 26t9 41v25q0 19 -7.5 29t-19 14.5t-26.5 4.5q-33 0 -43.5 -20t-10.5 -64v-42h-85v51q0 37 10 65.5t40 45t89 16.5q61 0 92.5 -12t43.5 -36.5t12 -62.5v-394h-94v57
q-10 -31 -39.5 -48t-64.5 -17zM171 55q34 0 48.5 24.5t14.5 68.5v139q-7 -12 -25 -22t-35 -21q-25 -15 -38 -31.5t-13 -45.5v-47q0 -27 6.5 -41.5t18 -19t23.5 -4.5zM187 546q-43 0 -66 16t-31.5 38.5t-9.5 40.5h53q2 -25 17.5 -37t36.5 -12q23 0 38.5 11.5t17.5 37.5h53
q-1 -23 -12 -45t-34.5 -36t-62.5 -14zM232 665q-15 0 -26.5 5t-25.5 14q-9 6 -20 11.5t-23 5.5t-20 -9t-10 -26h-30q1 35 17.5 57.5t43.5 22.5q15 0 28 -5.5t25 -13.5q11 -6 21 -11t20 -5q15 0 22 9t10 24h33q-1 -25 -10.5 -43t-24 -27t-30.5 -9z" />
    <glyph glyph-name="uni1EB6" unicode="&#x1eb6;" 
d="M11 0l115 591h134l113 -591h-106l-24 120h-108l-22 -120h-102zM137 169h105l-52 329zM192 -121q-18 0 -30 12t-12 28q0 17 12 29t30 12t30.5 -12t12.5 -29q0 -16 -12.5 -28t-30.5 -12zM191 631q-43 0 -66 16t-31.5 38.5t-9.5 40.5h53q2 -25 17.5 -37t36.5 -12
q23 0 38.5 11.5t17.5 37.5h53q-1 -23 -12 -45t-34.5 -36t-62.5 -14z" />
    <glyph glyph-name="uni1EB7" unicode="&#x1eb7;" horiz-adv-x="366" 
d="M132 -8q-25 0 -47.5 7t-38 29.5t-15.5 69.5v59q0 49 28.5 78.5t85.5 52.5q33 14 52.5 25t28.5 26t9 41v25q0 19 -7.5 29t-19 14.5t-26.5 4.5q-33 0 -43.5 -20t-10.5 -64v-42h-85v51q0 37 10 65.5t40 45t89 16.5q61 0 92.5 -12t43.5 -36.5t12 -62.5v-394h-94v57
q-10 -31 -39.5 -48t-64.5 -17zM171 55q34 0 48.5 24.5t14.5 68.5v139q-7 -12 -25 -22t-35 -21q-25 -15 -38 -31.5t-13 -45.5v-47q0 -27 6.5 -41.5t18 -19t23.5 -4.5zM182 -121q-18 0 -30 12t-12 28q0 17 12 29t30 12t30.5 -12t12.5 -29q0 -16 -12.5 -28t-30.5 -12zM187 546
q-43 0 -66 16t-31.5 38.5t-9.5 40.5h53q2 -25 17.5 -37t36.5 -12q23 0 38.5 11.5t17.5 37.5h53q-1 -23 -12 -45t-34.5 -36t-62.5 -14z" />
    <glyph glyph-name="uni1EB8" unicode="&#x1eb8;" horiz-adv-x="337" 
d="M50 0v591h266v-68h-166v-179h137v-75h-137v-203h166v-66h-266zM182 -121q-18 0 -30 12t-12 28q0 17 12 29t30 12t30.5 -12t12.5 -29q0 -16 -12.5 -28t-30.5 -12z" />
    <glyph glyph-name="uni1EB9" unicode="&#x1eb9;" horiz-adv-x="358" 
d="M185 -8q-51 0 -84.5 11.5t-50 44.5t-16.5 99v232q0 72 36 98.5t112 26.5t112 -26.5t36 -98.5v-132h-202v-137q0 -37 11.5 -52t44.5 -15q30 0 41 14.5t11 52.5v73h94v-35q0 -65 -16.5 -99t-48.5 -45.5t-80 -11.5zM128 291h108v92q0 34 -11 49t-43 15q-31 0 -42.5 -15
t-11.5 -49v-92zM179 -121q-18 0 -30 12t-12 28q0 17 12 29t30 12t30.5 -12t12.5 -29q0 -16 -12.5 -28t-30.5 -12z" />
    <glyph glyph-name="uni1EBA" unicode="&#x1eba;" horiz-adv-x="337" 
d="M50 0v591h266v-68h-166v-179h137v-75h-137v-203h166v-66h-266zM155 627v14q0 14 11 21.5t22 14.5t11 19v5q0 9 -5 17t-18 8q-17 0 -20 -23l-44 7q3 25 20 38t49 13q36 0 54.5 -11.5t18.5 -46.5v-4q0 -22 -12 -30.5t-24 -13.5t-12 -17v-11h-51z" />
    <glyph glyph-name="uni1EBB" unicode="&#x1ebb;" horiz-adv-x="358" 
d="M185 -8q-51 0 -84.5 11.5t-50 44.5t-16.5 99v232q0 72 36 98.5t112 26.5t112 -26.5t36 -98.5v-132h-202v-137q0 -37 11.5 -52t44.5 -15q30 0 41 14.5t11 52.5v73h94v-35q0 -65 -16.5 -99t-48.5 -45.5t-80 -11.5zM128 291h108v92q0 34 -11 49t-43 15q-31 0 -42.5 -15
t-11.5 -49v-92zM153 548v14q0 14 11 21.5t22 14.5t11 19v5q0 9 -5 17t-18 8q-17 0 -20 -23l-44 7q3 25 20 38t49 13q36 0 54.5 -11.5t18.5 -46.5v-4q0 -22 -12 -30.5t-24 -13.5t-12 -17v-11h-51z" />
    <glyph glyph-name="uni1EBC" unicode="&#x1ebc;" horiz-adv-x="337" 
d="M50 0v591h266v-68h-166v-179h137v-75h-137v-203h166v-66h-266zM225 638q-15 0 -26.5 5t-25.5 14q-9 6 -20 11.5t-23 5.5t-20 -9t-10 -26h-30q1 35 17.5 57.5t43.5 22.5q15 0 28 -5.5t25 -13.5q11 -6 21 -11t20 -5q15 0 22 9t10 24h33q-1 -25 -10.5 -43t-24 -27t-30.5 -9z
" />
    <glyph glyph-name="uni1EBD" unicode="&#x1ebd;" horiz-adv-x="358" 
d="M185 -8q-51 0 -84.5 11.5t-50 44.5t-16.5 99v232q0 72 36 98.5t112 26.5t112 -26.5t36 -98.5v-132h-202v-137q0 -37 11.5 -52t44.5 -15q30 0 41 14.5t11 52.5v73h94v-35q0 -65 -16.5 -99t-48.5 -45.5t-80 -11.5zM128 291h108v92q0 34 -11 49t-43 15q-31 0 -42.5 -15
t-11.5 -49v-92zM225 552q-15 0 -26.5 5t-25.5 14q-9 6 -20 11.5t-23 5.5t-20 -9t-10 -26h-30q1 35 17.5 57.5t43.5 22.5q15 0 28 -5.5t25 -13.5q11 -6 21 -11t20 -5q15 0 22 9t10 24h33q-1 -25 -10.5 -43t-24 -27t-30.5 -9z" />
    <glyph glyph-name="uni1EBE" unicode="&#x1ebe;" horiz-adv-x="337" 
d="M50 0v591h266v-68h-166v-179h137v-75h-137v-203h166v-66h-266zM89 626l67 77h52l68 -77h-55l-38 37l-37 -37h-57zM275 677l40 72h84l-70 -72h-54z" />
    <glyph glyph-name="uni1EBF" unicode="&#x1ebf;" horiz-adv-x="358" 
d="M185 -8q-51 0 -84.5 11.5t-50 44.5t-16.5 99v232q0 72 36 98.5t112 26.5t112 -26.5t36 -98.5v-132h-202v-137q0 -37 11.5 -52t44.5 -15q30 0 41 14.5t11 52.5v73h94v-35q0 -65 -16.5 -99t-48.5 -45.5t-80 -11.5zM128 291h108v92q0 34 -11 49t-43 15q-31 0 -42.5 -15
t-11.5 -49v-92zM59 546l92 100h56l93 -100h-63l-57 53l-57 -53h-64zM301 601l57 97h87l-90 -97h-54z" />
    <glyph glyph-name="uni1EC0" unicode="&#x1ec0;" horiz-adv-x="337" 
d="M50 0v591h266v-68h-166v-179h137v-75h-137v-203h166v-66h-266zM89 626l67 77h52l68 -77h-55l-38 37l-37 -37h-57zM301 676l-70 72h84l40 -72h-54z" />
    <glyph glyph-name="uni1EC1" unicode="&#x1ec1;" horiz-adv-x="358" 
d="M185 -8q-51 0 -84.5 11.5t-50 44.5t-16.5 99v232q0 72 36 98.5t112 26.5t112 -26.5t36 -98.5v-132h-202v-137q0 -37 11.5 -52t44.5 -15q30 0 41 14.5t11 52.5v73h94v-35q0 -65 -16.5 -99t-48.5 -45.5t-80 -11.5zM128 291h108v92q0 34 -11 49t-43 15q-31 0 -42.5 -15
t-11.5 -49v-92zM59 546l92 100h56l93 -100h-63l-57 53l-57 -53h-64zM331 601l-91 97h87l58 -97h-54z" />
    <glyph glyph-name="uni1EC2" unicode="&#x1ec2;" horiz-adv-x="337" 
d="M50 0v591h266v-68h-166v-179h137v-75h-137v-203h166v-66h-266zM89 626l67 77h52l68 -77h-55l-38 37l-37 -37h-57zM281 673v8q0 10 8 15.5t16.5 10t8.5 12.5v4q0 8 -4 12t-10 4q-11 0 -13 -15l-39 6q2 20 15 30.5t41 10.5q33 0 46 -9t13 -37v-3q0 -15 -8 -21t-16 -9.5
t-8 -11.5v-7h-50z" />
    <glyph glyph-name="uni1EC3" unicode="&#x1ec3;" horiz-adv-x="358" 
d="M185 -8q-51 0 -84.5 11.5t-50 44.5t-16.5 99v232q0 72 36 98.5t112 26.5t112 -26.5t36 -98.5v-132h-202v-137q0 -37 11.5 -52t44.5 -15q30 0 41 14.5t11 52.5v73h94v-35q0 -65 -16.5 -99t-48.5 -45.5t-80 -11.5zM128 291h108v92q0 34 -11 49t-43 15q-31 0 -42.5 -15
t-11.5 -49v-92zM59 546l92 100h56l93 -100h-63l-57 53l-57 -53h-64zM314 602v14q0 14 11 21.5t22 14.5t11 19v5q0 9 -5 17t-18 8q-17 0 -20 -23l-44 7q3 25 20 38t49 13q36 0 54.5 -11.5t18.5 -46.5v-4q0 -22 -12 -30.5t-24 -13.5t-12 -17v-11h-51z" />
    <glyph glyph-name="uni1EC4" unicode="&#x1ec4;" horiz-adv-x="337" 
d="M50 0v591h266v-68h-166v-179h137v-75h-137v-203h166v-66h-266zM89 626l67 77h52l68 -77h-55l-38 37l-37 -37h-57zM216 720q-11 0 -20.5 4.5t-18.5 9.5t-17 8.5t-16 3.5t-14 -7t-7 -18h-25q1 31 14 49t33 18q11 0 21 -3t20 -10q8 -4 16 -7.5t15 -3.5q10 0 15.5 6.5
t6.5 15.5h29q0 -21 -8.5 -36t-20 -22.5t-23.5 -7.5z" />
    <glyph glyph-name="uni1EC5" unicode="&#x1ec5;" horiz-adv-x="358" 
d="M185 -8q-51 0 -84.5 11.5t-50 44.5t-16.5 99v232q0 72 36 98.5t112 26.5t112 -26.5t36 -98.5v-132h-202v-137q0 -37 11.5 -52t44.5 -15q30 0 41 14.5t11 52.5v73h94v-35q0 -65 -16.5 -99t-48.5 -45.5t-80 -11.5zM128 291h108v92q0 34 -11 49t-43 15q-31 0 -42.5 -15
t-11.5 -49v-92zM59 546l92 100h56l93 -100h-63l-57 53l-57 -53h-64zM224 669q-15 0 -26.5 5t-25.5 14q-9 6 -20 11.5t-23 5.5t-20 -9t-10 -26h-30q1 35 17.5 57.5t43.5 22.5q15 0 28 -5.5t25 -13.5q11 -6 21 -11t20 -5q15 0 22 9t10 24h33q-1 -25 -10.5 -43t-24 -27
t-30.5 -9z" />
    <glyph glyph-name="uni1EC6" unicode="&#x1ec6;" horiz-adv-x="337" 
d="M50 0v591h266v-68h-166v-179h137v-75h-137v-203h166v-66h-266zM182 -121q-18 0 -30 12t-12 28q0 17 12 29t30 12t30.5 -12t12.5 -29q0 -16 -12.5 -28t-30.5 -12zM61 630l93 96h56l94 -95h-65l-56 47l-55 -48h-67z" />
    <glyph glyph-name="uni1EC7" unicode="&#x1ec7;" horiz-adv-x="358" 
d="M185 -8q-51 0 -84.5 11.5t-50 44.5t-16.5 99v232q0 72 36 98.5t112 26.5t112 -26.5t36 -98.5v-132h-202v-137q0 -37 11.5 -52t44.5 -15q30 0 41 14.5t11 52.5v73h94v-35q0 -65 -16.5 -99t-48.5 -45.5t-80 -11.5zM128 291h108v92q0 34 -11 49t-43 15q-31 0 -42.5 -15
t-11.5 -49v-92zM179 -121q-18 0 -30 12t-12 28q0 17 12 29t30 12t30.5 -12t12.5 -29q0 -16 -12.5 -28t-30.5 -12zM59 546l92 100h56l93 -100h-63l-57 53l-57 -53h-64z" />
    <glyph glyph-name="uni1EC8" unicode="&#x1ec8;" horiz-adv-x="195" 
d="M50 0v591h95v-591h-95zM70 627v14q0 14 11 21.5t22 14.5t11 19v5q0 9 -5 17t-18 8q-17 0 -20 -23l-44 7q3 25 20 38t49 13q36 0 54.5 -11.5t18.5 -46.5v-4q0 -22 -12 -30.5t-24 -13.5t-12 -17v-11h-51z" />
    <glyph glyph-name="uni1EC9" unicode="&#x1ec9;" horiz-adv-x="180" 
d="M43 0v495h94v-495h-94zM64 548v14q0 14 11 21.5t22 14.5t11 19v5q0 9 -5 17t-18 8q-17 0 -20 -23l-44 7q3 25 20 38t49 13q36 0 54.5 -11.5t18.5 -46.5v-4q0 -22 -12 -30.5t-24 -13.5t-12 -17v-11h-51z" />
    <glyph glyph-name="uni1ECA" unicode="&#x1eca;" horiz-adv-x="195" 
d="M50 0v591h95v-591h-95zM97 -121q-18 0 -30 12t-12 28q0 17 12 29t30 12t30.5 -12t12.5 -29q0 -16 -12.5 -28t-30.5 -12z" />
    <glyph glyph-name="uni1ECB" unicode="&#x1ecb;" horiz-adv-x="180" 
d="M43 0v495h94v-495h-94zM90 553q-20 0 -33.5 13t-13.5 32t13.5 32t33.5 13q19 0 33.5 -13t14.5 -32t-14.5 -32t-33.5 -13zM94 -121q-18 0 -30 12t-12 28q0 17 12 29t30 12t30.5 -12t12.5 -29q0 -16 -12.5 -28t-30.5 -12z" />
    <glyph glyph-name="uni1ECC" unicode="&#x1ecc;" horiz-adv-x="403" 
d="M200 -12q-47 0 -82.5 11t-55.5 45.5t-20 103.5v319q0 54 20 82.5t56 39.5t83 11t82.5 -11.5t56.5 -40t21 -81.5v-318q0 -71 -21 -105t-57 -45t-83 -11zM200 45q19 0 34 5.5t23 20.5t8 44v355q0 28 -8 43.5t-23 21t-34 5.5t-33.5 -5.5t-22.5 -21t-8 -43.5v-355
q0 -29 8 -44t22.5 -20.5t33.5 -5.5zM201 -121q-18 0 -30 12t-12 28q0 17 12 29t30 12t30.5 -12t12.5 -29q0 -16 -12.5 -28t-30.5 -12z" />
    <glyph glyph-name="uni1ECD" unicode="&#x1ecd;" horiz-adv-x="364" 
d="M183 -8q-49 0 -82.5 12.5t-50 46.5t-16.5 98v218q0 75 36 106t113 31q76 0 112 -30.5t36 -106.5v-218q0 -64 -16.5 -98t-49.5 -46.5t-82 -12.5zM183 49q29 0 41.5 15.5t12.5 55.5v255q0 39 -12 55t-42 16q-29 0 -42 -15.5t-13 -55.5v-255q0 -40 13 -55.5t42 -15.5z
M182 -121q-18 0 -30 12t-12 28q0 17 12 29t30 12t30.5 -12t12.5 -29q0 -16 -12.5 -28t-30.5 -12z" />
    <glyph glyph-name="uni1ECE" unicode="&#x1ece;" horiz-adv-x="403" 
d="M200 -12q-47 0 -82.5 11t-55.5 45.5t-20 103.5v319q0 54 20 82.5t56 39.5t83 11t82.5 -11.5t56.5 -40t21 -81.5v-318q0 -71 -21 -105t-57 -45t-83 -11zM200 45q19 0 34 5.5t23 20.5t8 44v355q0 28 -8 43.5t-23 21t-34 5.5t-33.5 -5.5t-22.5 -21t-8 -43.5v-355
q0 -29 8 -44t22.5 -20.5t33.5 -5.5zM174 627v14q0 14 11 21.5t22 14.5t11 19v5q0 9 -5 17t-18 8q-17 0 -20 -23l-44 7q3 25 20 38t49 13q36 0 54.5 -11.5t18.5 -46.5v-4q0 -22 -12 -30.5t-24 -13.5t-12 -17v-11h-51z" />
    <glyph glyph-name="uni1ECF" unicode="&#x1ecf;" horiz-adv-x="364" 
d="M183 -8q-49 0 -82.5 12.5t-50 46.5t-16.5 98v218q0 75 36 106t113 31q76 0 112 -30.5t36 -106.5v-218q0 -64 -16.5 -98t-49.5 -46.5t-82 -12.5zM183 49q29 0 41.5 15.5t12.5 55.5v255q0 39 -12 55t-42 16q-29 0 -42 -15.5t-13 -55.5v-255q0 -40 13 -55.5t42 -15.5z
M155 548v14q0 14 11 21.5t22 14.5t11 19v5q0 9 -5 17t-18 8q-17 0 -20 -23l-44 7q3 25 20 38t49 13q36 0 54.5 -11.5t18.5 -46.5v-4q0 -22 -12 -30.5t-24 -13.5t-12 -17v-11h-51z" />
    <glyph glyph-name="uni1ED0" unicode="&#x1ed0;" horiz-adv-x="403" 
d="M200 -12q-47 0 -82.5 11t-55.5 45.5t-20 103.5v319q0 54 20 82.5t56 39.5t83 11t82.5 -11.5t56.5 -40t21 -81.5v-318q0 -71 -21 -105t-57 -45t-83 -11zM200 45q19 0 34 5.5t23 20.5t8 44v355q0 28 -8 43.5t-23 21t-34 5.5t-33.5 -5.5t-22.5 -21t-8 -43.5v-355
q0 -29 8 -44t22.5 -20.5t33.5 -5.5zM108 626l67 77h52l68 -77h-55l-38 37l-37 -37h-57zM294 677l40 72h84l-70 -72h-54z" />
    <glyph glyph-name="uni1ED1" unicode="&#x1ed1;" horiz-adv-x="364" 
d="M183 -8q-49 0 -82.5 12.5t-50 46.5t-16.5 98v218q0 75 36 106t113 31q76 0 112 -30.5t36 -106.5v-218q0 -64 -16.5 -98t-49.5 -46.5t-82 -12.5zM183 49q29 0 41.5 15.5t12.5 55.5v255q0 39 -12 55t-42 16q-29 0 -42 -15.5t-13 -55.5v-255q0 -40 13 -55.5t42 -15.5z
M61 546l92 100h56l93 -100h-63l-57 53l-57 -53h-64zM303 601l57 97h87l-90 -97h-54z" />
    <glyph glyph-name="uni1ED2" unicode="&#x1ed2;" horiz-adv-x="403" 
d="M200 -12q-47 0 -82.5 11t-55.5 45.5t-20 103.5v319q0 54 20 82.5t56 39.5t83 11t82.5 -11.5t56.5 -40t21 -81.5v-318q0 -71 -21 -105t-57 -45t-83 -11zM200 45q19 0 34 5.5t23 20.5t8 44v355q0 28 -8 43.5t-23 21t-34 5.5t-33.5 -5.5t-22.5 -21t-8 -43.5v-355
q0 -29 8 -44t22.5 -20.5t33.5 -5.5zM108 626l67 77h52l68 -77h-55l-38 37l-37 -37h-57zM320 676l-70 72h84l40 -72h-54z" />
    <glyph glyph-name="uni1ED3" unicode="&#x1ed3;" horiz-adv-x="364" 
d="M183 -8q-49 0 -82.5 12.5t-50 46.5t-16.5 98v218q0 75 36 106t113 31q76 0 112 -30.5t36 -106.5v-218q0 -64 -16.5 -98t-49.5 -46.5t-82 -12.5zM183 49q29 0 41.5 15.5t12.5 55.5v255q0 39 -12 55t-42 16q-29 0 -42 -15.5t-13 -55.5v-255q0 -40 13 -55.5t42 -15.5z
M61 546l92 100h56l93 -100h-63l-57 53l-57 -53h-64zM334 601l-91 97h87l58 -97h-54z" />
    <glyph glyph-name="uni1ED4" unicode="&#x1ed4;" horiz-adv-x="403" 
d="M200 -12q-47 0 -82.5 11t-55.5 45.5t-20 103.5v319q0 54 20 82.5t56 39.5t83 11t82.5 -11.5t56.5 -40t21 -81.5v-318q0 -71 -21 -105t-57 -45t-83 -11zM200 45q19 0 34 5.5t23 20.5t8 44v355q0 28 -8 43.5t-23 21t-34 5.5t-33.5 -5.5t-22.5 -21t-8 -43.5v-355
q0 -29 8 -44t22.5 -20.5t33.5 -5.5zM108 626l67 77h52l68 -77h-55l-38 37l-37 -37h-57zM300 673v8q0 10 8 15.5t16.5 10t8.5 12.5v4q0 8 -4 12t-10 4q-11 0 -13 -15l-39 6q2 20 15 30.5t41 10.5q33 0 46 -9t13 -37v-3q0 -15 -8 -21t-16 -9.5t-8 -11.5v-7h-50z" />
    <glyph glyph-name="uni1ED5" unicode="&#x1ed5;" horiz-adv-x="364" 
d="M183 -8q-49 0 -82.5 12.5t-50 46.5t-16.5 98v218q0 75 36 106t113 31q76 0 112 -30.5t36 -106.5v-218q0 -64 -16.5 -98t-49.5 -46.5t-82 -12.5zM183 49q29 0 41.5 15.5t12.5 55.5v255q0 39 -12 55t-42 16q-29 0 -42 -15.5t-13 -55.5v-255q0 -40 13 -55.5t42 -15.5z
M61 546l92 100h56l93 -100h-63l-57 53l-57 -53h-64zM317 602v14q0 14 11 21.5t22 14.5t11 19v5q0 9 -5 17t-18 8q-17 0 -20 -23l-44 7q3 25 20 38t49 13q36 0 54.5 -11.5t18.5 -46.5v-4q0 -22 -12 -30.5t-24 -13.5t-12 -17v-11h-51z" />
    <glyph glyph-name="uni1ED6" unicode="&#x1ed6;" horiz-adv-x="403" 
d="M200 -12q-47 0 -82.5 11t-55.5 45.5t-20 103.5v319q0 54 20 82.5t56 39.5t83 11t82.5 -11.5t56.5 -40t21 -81.5v-318q0 -71 -21 -105t-57 -45t-83 -11zM200 45q19 0 34 5.5t23 20.5t8 44v355q0 28 -8 43.5t-23 21t-34 5.5t-33.5 -5.5t-22.5 -21t-8 -43.5v-355
q0 -29 8 -44t22.5 -20.5t33.5 -5.5zM108 626l67 77h52l68 -77h-55l-38 37l-37 -37h-57zM235 720q-11 0 -20.5 4.5t-18.5 9.5t-17 8.5t-16 3.5t-14 -7t-7 -18h-25q1 31 14 49t33 18q11 0 21 -3t20 -10q8 -4 16 -7.5t15 -3.5q10 0 15.5 6.5t6.5 15.5h29q0 -21 -8.5 -36
t-20 -22.5t-23.5 -7.5z" />
    <glyph glyph-name="uni1ED7" unicode="&#x1ed7;" horiz-adv-x="364" 
d="M183 -8q-49 0 -82.5 12.5t-50 46.5t-16.5 98v218q0 75 36 106t113 31q76 0 112 -30.5t36 -106.5v-218q0 -64 -16.5 -98t-49.5 -46.5t-82 -12.5zM183 49q29 0 41.5 15.5t12.5 55.5v255q0 39 -12 55t-42 16q-29 0 -42 -15.5t-13 -55.5v-255q0 -40 13 -55.5t42 -15.5z
M61 546l92 100h56l93 -100h-63l-57 53l-57 -53h-64zM227 669q-15 0 -26.5 5t-25.5 14q-9 6 -20 11.5t-23 5.5t-20 -9t-10 -26h-30q1 35 17.5 57.5t43.5 22.5q15 0 28 -5.5t25 -13.5q11 -6 21 -11t20 -5q15 0 22 9t10 24h33q-1 -25 -10.5 -43t-24 -27t-30.5 -9z" />
    <glyph glyph-name="uni1ED8" unicode="&#x1ed8;" horiz-adv-x="403" 
d="M200 -12q-47 0 -82.5 11t-55.5 45.5t-20 103.5v319q0 54 20 82.5t56 39.5t83 11t82.5 -11.5t56.5 -40t21 -81.5v-318q0 -71 -21 -105t-57 -45t-83 -11zM200 45q19 0 34 5.5t23 20.5t8 44v355q0 28 -8 43.5t-23 21t-34 5.5t-33.5 -5.5t-22.5 -21t-8 -43.5v-355
q0 -29 8 -44t22.5 -20.5t33.5 -5.5zM201 -121q-18 0 -30 12t-12 28q0 17 12 29t30 12t30.5 -12t12.5 -29q0 -16 -12.5 -28t-30.5 -12zM80 630l93 96h56l94 -95h-65l-56 47l-55 -48h-67z" />
    <glyph glyph-name="uni1ED9" unicode="&#x1ed9;" horiz-adv-x="364" 
d="M183 -8q-49 0 -82.5 12.5t-50 46.5t-16.5 98v218q0 75 36 106t113 31q76 0 112 -30.5t36 -106.5v-218q0 -64 -16.5 -98t-49.5 -46.5t-82 -12.5zM183 49q29 0 41.5 15.5t12.5 55.5v255q0 39 -12 55t-42 16q-29 0 -42 -15.5t-13 -55.5v-255q0 -40 13 -55.5t42 -15.5z
M182 -121q-18 0 -30 12t-12 28q0 17 12 29t30 12t30.5 -12t12.5 -29q0 -16 -12.5 -28t-30.5 -12zM61 546l92 100h56l93 -100h-63l-57 53l-57 -53h-64z" />
    <glyph glyph-name="uni1EDA" unicode="&#x1eda;" horiz-adv-x="403" 
d="M200 -12q-47 0 -82.5 11t-55.5 45.5t-20 103.5v319q0 54 20 82.5t56 39.5t83 11t82.5 -11.5t56.5 -40t21 -81.5v-318q0 -71 -21 -105t-57 -45t-83 -11zM200 45q19 0 34 5.5t23 20.5t8 44v355q0 28 -8 43.5t-23 21t-34 5.5t-33.5 -5.5t-22.5 -21t-8 -43.5v-355
q0 -29 8 -44t22.5 -20.5t33.5 -5.5zM251 548l-2 43h15q47 0 47 46v17h62v-15q0 -48 -31 -69.5t-91 -21.5zM147 634l79 90h89l-113 -90h-55z" />
    <glyph glyph-name="uni1EDB" unicode="&#x1edb;" horiz-adv-x="364" 
d="M183 -8q-49 0 -82.5 12.5t-50 46.5t-16.5 98v218q0 75 36 106t113 31q76 0 112 -30.5t36 -106.5v-218q0 -64 -16.5 -98t-49.5 -46.5t-82 -12.5zM183 49q29 0 41.5 15.5t12.5 55.5v255q0 39 -12 55t-42 16q-29 0 -42 -15.5t-13 -55.5v-255q0 -40 13 -55.5t42 -15.5z
M237 451l-2 43h15q47 0 47 46v17h62v-15q0 -48 -31 -69.5t-91 -21.5zM142 547l57 97h87l-90 -97h-54z" />
    <glyph glyph-name="uni1EDC" unicode="&#x1edc;" horiz-adv-x="403" 
d="M200 -12q-47 0 -82.5 11t-55.5 45.5t-20 103.5v319q0 54 20 82.5t56 39.5t83 11t82.5 -11.5t56.5 -40t21 -81.5v-318q0 -71 -21 -105t-57 -45t-83 -11zM200 45q19 0 34 5.5t23 20.5t8 44v355q0 28 -8 43.5t-23 21t-34 5.5t-33.5 -5.5t-22.5 -21t-8 -43.5v-355
q0 -29 8 -44t22.5 -20.5t33.5 -5.5zM251 548l-2 43h15q47 0 47 46v17h62v-15q0 -48 -31 -69.5t-91 -21.5zM195 634l-107 87h91l76 -87h-60z" />
    <glyph glyph-name="uni1EDD" unicode="&#x1edd;" horiz-adv-x="364" 
d="M183 -8q-49 0 -82.5 12.5t-50 46.5t-16.5 98v218q0 75 36 106t113 31q76 0 112 -30.5t36 -106.5v-218q0 -64 -16.5 -98t-49.5 -46.5t-82 -12.5zM183 49q29 0 41.5 15.5t12.5 55.5v255q0 39 -12 55t-42 16q-29 0 -42 -15.5t-13 -55.5v-255q0 -40 13 -55.5t42 -15.5z
M237 451l-2 43h15q47 0 47 46v17h62v-15q0 -48 -31 -69.5t-91 -21.5zM173 547l-91 97h87l58 -97h-54z" />
    <glyph glyph-name="uni1EDE" unicode="&#x1ede;" horiz-adv-x="403" 
d="M200 -12q-47 0 -82.5 11t-55.5 45.5t-20 103.5v319q0 54 20 82.5t56 39.5t83 11t82.5 -11.5t56.5 -40t21 -81.5v-318q0 -71 -21 -105t-57 -45t-83 -11zM200 45q19 0 34 5.5t23 20.5t8 44v355q0 28 -8 43.5t-23 21t-34 5.5t-33.5 -5.5t-22.5 -21t-8 -43.5v-355
q0 -29 8 -44t22.5 -20.5t33.5 -5.5zM251 548l-2 43h15q47 0 47 46v17h62v-15q0 -48 -31 -69.5t-91 -21.5zM174 627v14q0 14 11 21.5t22 14.5t11 19v5q0 9 -5 17t-18 8q-17 0 -20 -23l-44 7q3 25 20 38t49 13q36 0 54.5 -11.5t18.5 -46.5v-4q0 -22 -12 -30.5t-24 -13.5
t-12 -17v-11h-51z" />
    <glyph glyph-name="uni1EDF" unicode="&#x1edf;" horiz-adv-x="364" 
d="M183 -8q-49 0 -82.5 12.5t-50 46.5t-16.5 98v218q0 75 36 106t113 31q76 0 112 -30.5t36 -106.5v-218q0 -64 -16.5 -98t-49.5 -46.5t-82 -12.5zM183 49q29 0 41.5 15.5t12.5 55.5v255q0 39 -12 55t-42 16q-29 0 -42 -15.5t-13 -55.5v-255q0 -40 13 -55.5t42 -15.5z
M237 451l-2 43h15q47 0 47 46v17h62v-15q0 -48 -31 -69.5t-91 -21.5zM155 548v14q0 14 11 21.5t22 14.5t11 19v5q0 9 -5 17t-18 8q-17 0 -20 -23l-44 7q3 25 20 38t49 13q36 0 54.5 -11.5t18.5 -46.5v-4q0 -22 -12 -30.5t-24 -13.5t-12 -17v-11h-51z" />
    <glyph glyph-name="uni1EE0" unicode="&#x1ee0;" horiz-adv-x="403" 
d="M200 -12q-47 0 -82.5 11t-55.5 45.5t-20 103.5v319q0 54 20 82.5t56 39.5t83 11t82.5 -11.5t56.5 -40t21 -81.5v-318q0 -71 -21 -105t-57 -45t-83 -11zM200 45q19 0 34 5.5t23 20.5t8 44v355q0 28 -8 43.5t-23 21t-34 5.5t-33.5 -5.5t-22.5 -21t-8 -43.5v-355
q0 -29 8 -44t22.5 -20.5t33.5 -5.5zM251 548l-2 43h15q47 0 47 46v17h62v-15q0 -48 -31 -69.5t-91 -21.5zM244 638q-15 0 -26.5 5t-25.5 14q-9 6 -20 11.5t-23 5.5t-20 -9t-10 -26h-30q1 35 17.5 57.5t43.5 22.5q15 0 28 -5.5t25 -13.5q11 -6 21 -11t20 -5q15 0 22 9t10 24
h33q-1 -25 -10.5 -43t-24 -27t-30.5 -9z" />
    <glyph glyph-name="uni1EE1" unicode="&#x1ee1;" horiz-adv-x="364" 
d="M183 -8q-49 0 -82.5 12.5t-50 46.5t-16.5 98v218q0 75 36 106t113 31q76 0 112 -30.5t36 -106.5v-218q0 -64 -16.5 -98t-49.5 -46.5t-82 -12.5zM183 49q29 0 41.5 15.5t12.5 55.5v255q0 39 -12 55t-42 16q-29 0 -42 -15.5t-13 -55.5v-255q0 -40 13 -55.5t42 -15.5z
M237 451l-2 43h15q47 0 47 46v17h62v-15q0 -48 -31 -69.5t-91 -21.5zM227 552q-15 0 -26.5 5t-25.5 14q-9 6 -20 11.5t-23 5.5t-20 -9t-10 -26h-30q1 35 17.5 57.5t43.5 22.5q15 0 28 -5.5t25 -13.5q11 -6 21 -11t20 -5q15 0 22 9t10 24h33q-1 -25 -10.5 -43t-24 -27
t-30.5 -9z" />
    <glyph glyph-name="uni1EE2" unicode="&#x1ee2;" horiz-adv-x="403" 
d="M200 -12q-47 0 -82.5 11t-55.5 45.5t-20 103.5v319q0 54 20 82.5t56 39.5t83 11t82.5 -11.5t56.5 -40t21 -81.5v-318q0 -71 -21 -105t-57 -45t-83 -11zM200 45q19 0 34 5.5t23 20.5t8 44v355q0 28 -8 43.5t-23 21t-34 5.5t-33.5 -5.5t-22.5 -21t-8 -43.5v-355
q0 -29 8 -44t22.5 -20.5t33.5 -5.5zM251 548l-2 43h15q47 0 47 46v17h62v-15q0 -48 -31 -69.5t-91 -21.5zM201 -121q-18 0 -30 12t-12 28q0 17 12 29t30 12t30.5 -12t12.5 -29q0 -16 -12.5 -28t-30.5 -12z" />
    <glyph glyph-name="uni1EE3" unicode="&#x1ee3;" horiz-adv-x="364" 
d="M183 -8q-49 0 -82.5 12.5t-50 46.5t-16.5 98v218q0 75 36 106t113 31q76 0 112 -30.5t36 -106.5v-218q0 -64 -16.5 -98t-49.5 -46.5t-82 -12.5zM183 49q29 0 41.5 15.5t12.5 55.5v255q0 39 -12 55t-42 16q-29 0 -42 -15.5t-13 -55.5v-255q0 -40 13 -55.5t42 -15.5z
M237 451l-2 43h15q47 0 47 46v17h62v-15q0 -48 -31 -69.5t-91 -21.5zM182 -121q-18 0 -30 12t-12 28q0 17 12 29t30 12t30.5 -12t12.5 -29q0 -16 -12.5 -28t-30.5 -12z" />
    <glyph glyph-name="uni1EE4" unicode="&#x1ee4;" horiz-adv-x="410" 
d="M205 -12q-34 0 -63 5t-50 20t-33 45t-12 81v452h96v-477q0 -27 8.5 -41.5t22.5 -19.5t31 -5t31 5t22.5 19.5t8.5 41.5v477h95v-451q0 -51 -11.5 -81.5t-32.5 -45.5t-50 -20t-63 -5zM204 -121q-18 0 -30 12t-12 28q0 17 12 29t30 12t30.5 -12t12.5 -29q0 -16 -12.5 -28
t-30.5 -12z" />
    <glyph glyph-name="uni1EE5" unicode="&#x1ee5;" horiz-adv-x="380" 
d="M153 -7q-50 0 -74.5 17t-32 46.5t-7.5 67.5v371h94v-364q0 -18 2.5 -34t14 -26.5t37.5 -10.5q19 0 30 6t17 14.5t8 16.5v398h94v-495h-80l-7 57q-9 -26 -33.5 -45t-62.5 -19zM189 -121q-18 0 -30 12t-12 28q0 17 12 29t30 12t30.5 -12t12.5 -29q0 -16 -12.5 -28
t-30.5 -12z" />
    <glyph glyph-name="uni1EE6" unicode="&#x1ee6;" horiz-adv-x="410" 
d="M205 -12q-34 0 -63 5t-50 20t-33 45t-12 81v452h96v-477q0 -27 8.5 -41.5t22.5 -19.5t31 -5t31 5t22.5 19.5t8.5 41.5v477h95v-451q0 -51 -11.5 -81.5t-32.5 -45.5t-50 -20t-63 -5zM177 627v14q0 14 11 21.5t22 14.5t11 19v5q0 9 -5 17t-18 8q-17 0 -20 -23l-44 7
q3 25 20 38t49 13q36 0 54.5 -11.5t18.5 -46.5v-4q0 -22 -12 -30.5t-24 -13.5t-12 -17v-11h-51z" />
    <glyph glyph-name="uni1EE7" unicode="&#x1ee7;" horiz-adv-x="380" 
d="M153 -7q-50 0 -74.5 17t-32 46.5t-7.5 67.5v371h94v-364q0 -18 2.5 -34t14 -26.5t37.5 -10.5q19 0 30 6t17 14.5t8 16.5v398h94v-495h-80l-7 57q-9 -26 -33.5 -45t-62.5 -19zM163 548v14q0 14 11 21.5t22 14.5t11 19v5q0 9 -5 17t-18 8q-17 0 -20 -23l-44 7q3 25 20 38
t49 13q36 0 54.5 -11.5t18.5 -46.5v-4q0 -22 -12 -30.5t-24 -13.5t-12 -17v-11h-51z" />
    <glyph glyph-name="uni1EE8" unicode="&#x1ee8;" horiz-adv-x="410" 
d="M205 -12q-34 0 -63 5t-50 20t-33 45t-12 81v452h96v-477q0 -27 8.5 -41.5t22.5 -19.5t31 -5t31 5t22.5 19.5t8.5 41.5v477h95v-451q0 -51 -11.5 -81.5t-32.5 -45.5t-50 -20t-63 -5zM287 548l-2 43h15q47 0 47 46v17h62v-15q0 -48 -31 -69.5t-91 -21.5zM149 634l79 90h89
l-113 -90h-55z" />
    <glyph glyph-name="uni1EE9" unicode="&#x1ee9;" horiz-adv-x="380" 
d="M153 -7q-50 0 -74.5 17t-32 46.5t-7.5 67.5v371h94v-364q0 -18 2.5 -34t14 -26.5t37.5 -10.5q19 0 30 6t17 14.5t8 16.5v398h94v-495h-80l-7 57q-9 -26 -33.5 -45t-62.5 -19zM267 451l-2 43h15q47 0 47 46v17h62v-15q0 -48 -31 -69.5t-91 -21.5zM150 547l57 97h87
l-90 -97h-54z" />
    <glyph glyph-name="uni1EEA" unicode="&#x1eea;" horiz-adv-x="410" 
d="M205 -12q-34 0 -63 5t-50 20t-33 45t-12 81v452h96v-477q0 -27 8.5 -41.5t22.5 -19.5t31 -5t31 5t22.5 19.5t8.5 41.5v477h95v-451q0 -51 -11.5 -81.5t-32.5 -45.5t-50 -20t-63 -5zM287 548l-2 43h15q47 0 47 46v17h62v-15q0 -48 -31 -69.5t-91 -21.5zM198 634l-107 87
h91l76 -87h-60z" />
    <glyph glyph-name="uni1EEB" unicode="&#x1eeb;" horiz-adv-x="380" 
d="M153 -7q-50 0 -74.5 17t-32 46.5t-7.5 67.5v371h94v-364q0 -18 2.5 -34t14 -26.5t37.5 -10.5q19 0 30 6t17 14.5t8 16.5v398h94v-495h-80l-7 57q-9 -26 -33.5 -45t-62.5 -19zM267 451l-2 43h15q47 0 47 46v17h62v-15q0 -48 -31 -69.5t-91 -21.5zM180 547l-91 97h87
l58 -97h-54z" />
    <glyph glyph-name="uni1EEC" unicode="&#x1eec;" horiz-adv-x="410" 
d="M205 -12q-34 0 -63 5t-50 20t-33 45t-12 81v452h96v-477q0 -27 8.5 -41.5t22.5 -19.5t31 -5t31 5t22.5 19.5t8.5 41.5v477h95v-451q0 -51 -11.5 -81.5t-32.5 -45.5t-50 -20t-63 -5zM287 548l-2 43h15q47 0 47 46v17h62v-15q0 -48 -31 -69.5t-91 -21.5zM177 627v14
q0 14 11 21.5t22 14.5t11 19v5q0 9 -5 17t-18 8q-17 0 -20 -23l-44 7q3 25 20 38t49 13q36 0 54.5 -11.5t18.5 -46.5v-4q0 -22 -12 -30.5t-24 -13.5t-12 -17v-11h-51z" />
    <glyph glyph-name="uni1EED" unicode="&#x1eed;" horiz-adv-x="380" 
d="M153 -7q-50 0 -74.5 17t-32 46.5t-7.5 67.5v371h94v-364q0 -18 2.5 -34t14 -26.5t37.5 -10.5q19 0 30 6t17 14.5t8 16.5v398h94v-495h-80l-7 57q-9 -26 -33.5 -45t-62.5 -19zM267 451l-2 43h15q47 0 47 46v17h62v-15q0 -48 -31 -69.5t-91 -21.5zM163 548v14q0 14 11 21.5
t22 14.5t11 19v5q0 9 -5 17t-18 8q-17 0 -20 -23l-44 7q3 25 20 38t49 13q36 0 54.5 -11.5t18.5 -46.5v-4q0 -22 -12 -30.5t-24 -13.5t-12 -17v-11h-51z" />
    <glyph glyph-name="uni1EEE" unicode="&#x1eee;" horiz-adv-x="410" 
d="M205 -12q-34 0 -63 5t-50 20t-33 45t-12 81v452h96v-477q0 -27 8.5 -41.5t22.5 -19.5t31 -5t31 5t22.5 19.5t8.5 41.5v477h95v-451q0 -51 -11.5 -81.5t-32.5 -45.5t-50 -20t-63 -5zM287 548l-2 43h15q47 0 47 46v17h62v-15q0 -48 -31 -69.5t-91 -21.5zM247 638
q-15 0 -26.5 5t-25.5 14q-9 6 -20 11.5t-23 5.5t-20 -9t-10 -26h-30q1 35 17.5 57.5t43.5 22.5q15 0 28 -5.5t25 -13.5q11 -6 21 -11t20 -5q15 0 22 9t10 24h33q-1 -25 -10.5 -43t-24 -27t-30.5 -9z" />
    <glyph glyph-name="uni1EEF" unicode="&#x1eef;" horiz-adv-x="380" 
d="M153 -7q-50 0 -74.5 17t-32 46.5t-7.5 67.5v371h94v-364q0 -18 2.5 -34t14 -26.5t37.5 -10.5q19 0 30 6t17 14.5t8 16.5v398h94v-495h-80l-7 57q-9 -26 -33.5 -45t-62.5 -19zM267 451l-2 43h15q47 0 47 46v17h62v-15q0 -48 -31 -69.5t-91 -21.5zM235 552q-15 0 -26.5 5
t-25.5 14q-9 6 -20 11.5t-23 5.5t-20 -9t-10 -26h-30q1 35 17.5 57.5t43.5 22.5q15 0 28 -5.5t25 -13.5q11 -6 21 -11t20 -5q15 0 22 9t10 24h33q-1 -25 -10.5 -43t-24 -27t-30.5 -9z" />
    <glyph glyph-name="uni1EF0" unicode="&#x1ef0;" horiz-adv-x="410" 
d="M205 -12q-34 0 -63 5t-50 20t-33 45t-12 81v452h96v-477q0 -27 8.5 -41.5t22.5 -19.5t31 -5t31 5t22.5 19.5t8.5 41.5v477h95v-451q0 -51 -11.5 -81.5t-32.5 -45.5t-50 -20t-63 -5zM287 548l-2 43h15q47 0 47 46v17h62v-15q0 -48 -31 -69.5t-91 -21.5zM204 -121
q-18 0 -30 12t-12 28q0 17 12 29t30 12t30.5 -12t12.5 -29q0 -16 -12.5 -28t-30.5 -12z" />
    <glyph glyph-name="uni1EF1" unicode="&#x1ef1;" horiz-adv-x="380" 
d="M153 -7q-50 0 -74.5 17t-32 46.5t-7.5 67.5v371h94v-364q0 -18 2.5 -34t14 -26.5t37.5 -10.5q19 0 30 6t17 14.5t8 16.5v398h94v-495h-80l-7 57q-9 -26 -33.5 -45t-62.5 -19zM267 451l-2 43h15q47 0 47 46v17h62v-15q0 -48 -31 -69.5t-91 -21.5zM189 -121q-18 0 -30 12
t-12 28q0 17 12 29t30 12t30.5 -12t12.5 -29q0 -16 -12.5 -28t-30.5 -12z" />
    <glyph glyph-name="Ygrave" unicode="&#x1ef2;" horiz-adv-x="345" 
d="M122 0v254l-110 337h95l62 -202l5 -31l6 31l65 202h89l-116 -342v-249h-96zM170 634l-107 87h91l76 -87h-60z" />
    <glyph glyph-name="ygrave" unicode="&#x1ef3;" horiz-adv-x="337" 
d="M88 -117q-26 0 -48 4t-35 7v51q6 -1 16.5 -3.5t24.5 -2.5t31 4.5t25 26.5q4 9 8.5 20.5t1.5 26.5l-107 478h97l73 -403v0l71 403h89l-101 -461q-16 -79 -51 -115t-95 -36zM159 547l-91 97h87l58 -97h-54z" />
    <glyph glyph-name="uni1EF4" unicode="&#x1ef4;" horiz-adv-x="345" 
d="M122 0v254l-110 337h95l62 -202l5 -31l6 31l65 202h89l-116 -342v-249h-96zM172 -121q-18 0 -30 12t-12 28q0 17 12 29t30 12t30.5 -12t12.5 -29q0 -16 -12.5 -28t-30.5 -12z" />
    <glyph glyph-name="uni1EF5" unicode="&#x1ef5;" horiz-adv-x="337" 
d="M88 -117q-26 0 -48 4t-35 7v51q6 -1 16.5 -3.5t24.5 -2.5t31 4.5t25 26.5q4 9 8.5 20.5t1.5 26.5l-107 478h97l73 -403v0l71 403h89l-101 -461q-16 -79 -51 -115t-95 -36zM286 -121q-18 0 -30 12t-12 28q0 17 12 29t30 12t30.5 -12t12.5 -29q0 -16 -12.5 -28t-30.5 -12z
" />
    <glyph glyph-name="uni1EF6" unicode="&#x1ef6;" horiz-adv-x="345" 
d="M122 0v254l-110 337h95l62 -202l5 -31l6 31l65 202h89l-116 -342v-249h-96zM149 627v14q0 14 11 21.5t22 14.5t11 19v5q0 9 -5 17t-18 8q-17 0 -20 -23l-44 7q3 25 20 38t49 13q36 0 54.5 -11.5t18.5 -46.5v-4q0 -22 -12 -30.5t-24 -13.5t-12 -17v-11h-51z" />
    <glyph glyph-name="uni1EF7" unicode="&#x1ef7;" horiz-adv-x="337" 
d="M88 -117q-26 0 -48 4t-35 7v51q6 -1 16.5 -3.5t24.5 -2.5t31 4.5t25 26.5q4 9 8.5 20.5t1.5 26.5l-107 478h97l73 -403v0l71 403h89l-101 -461q-16 -79 -51 -115t-95 -36zM142 548v14q0 14 11 21.5t22 14.5t11 19v5q0 9 -5 17t-18 8q-17 0 -20 -23l-44 7q3 25 20 38
t49 13q36 0 54.5 -11.5t18.5 -46.5v-4q0 -22 -12 -30.5t-24 -13.5t-12 -17v-11h-51z" />
    <glyph glyph-name="uni1EF8" unicode="&#x1ef8;" horiz-adv-x="345" 
d="M122 0v254l-110 337h95l62 -202l5 -31l6 31l65 202h89l-116 -342v-249h-96zM219 638q-15 0 -26.5 5t-25.5 14q-9 6 -20 11.5t-23 5.5t-20 -9t-10 -26h-30q1 35 17.5 57.5t43.5 22.5q15 0 28 -5.5t25 -13.5q11 -6 21 -11t20 -5q15 0 22 9t10 24h33q-1 -25 -10.5 -43
t-24 -27t-30.5 -9z" />
    <glyph glyph-name="uni1EF9" unicode="&#x1ef9;" horiz-adv-x="337" 
d="M88 -117q-26 0 -48 4t-35 7v51q6 -1 16.5 -3.5t24.5 -2.5t31 4.5t25 26.5q4 9 8.5 20.5t1.5 26.5l-107 478h97l73 -403v0l71 403h89l-101 -461q-16 -79 -51 -115t-95 -36zM214 552q-15 0 -26.5 5t-25.5 14q-9 6 -20 11.5t-23 5.5t-20 -9t-10 -26h-30q1 35 17.5 57.5
t43.5 22.5q15 0 28 -5.5t25 -13.5q11 -6 21 -11t20 -5q15 0 22 9t10 24h33q-1 -25 -10.5 -43t-24 -27t-30.5 -9z" />
    <glyph glyph-name="uni2010" unicode="&#x2010;" horiz-adv-x="284" 
d="M39 241v64h206v-64h-206z" />
    <glyph glyph-name="endash" unicode="&#x2013;" horiz-adv-x="403" 
d="M25 241v64h353v-64h-353z" />
    <glyph glyph-name="emdash" unicode="&#x2014;" horiz-adv-x="632" 
d="M25 241v64h582v-64h-582z" />
    <glyph glyph-name="quoteleft" unicode="&#x2018;" horiz-adv-x="191" 
d="M105 623h51l-39 -207h-83z" />
    <glyph glyph-name="quoteright" unicode="&#x2019;" horiz-adv-x="200" 
d="M91 423h-52l39 207h83z" />
    </font>
</defs>
</svg>
